Breakaway 2011 Hindi 720p WEB-DL x264

.
Download .Torrent Magnet
Torren Name: Breakaway 2011 Hindi 720p WEB-DL x264
Org Name: Breakawa
File size: 1.1 GB
Categories: Movies
Uploader: TodayPk.se
Seeders: 102 Leechers: 52 Downloaded: 217
Last scrape: 16 May 2018 02:20:20


ebff283becf5d0f55d55d198c11928ba.png





General 
Format : Matroska 
Format version : Version 4 / Version 2 
File size : 1.10 GiB 
Duration : 1 h 37 min 
Overall bit rate : 1 613 kb/s 

Video 
ID : 1 
Format : AVC 
Format/Info : Advanced Video Codec 
Format profile : [email protected] 
Format settings : CABAC / 4 Ref Frames 
Format settings, CABAC : Yes 
Format settings, RefFrames : 4 frames 
Codec ID : V_MPEG4/ISO/AVC 
Duration : 1 h 37 min 
Bit rate : 1 400 kb/s 
Width : 1 280 pixels 
Height : 544 pixels 
Display aspect ratio : 2.35:1 
Frame rate mode : Constant 
Frame rate : 30.000 FPS 
Color space : YUV 
Chroma subsampling : 4:2:0 
Bit depth : 8 bits 
Scan type : Progressive 
Bits/(Pixel*Frame) : 0.067 
Stream size : 969 MiB (86%) 
Writing library : x264 core 155 r2893 b00bcaf 
Default : Yes 
Forced : No 

Audio 
ID : 2 
Format : AAC 
Format/Info : Advanced Audio Codec 
Format profile : LC 
Codec ID : A_AAC-2 
Duration : 1 h 37 min 
Bit rate : 224 kb/s 
Channel(s) : 2 channels 
Channel positions : Front: L R 
Sampling rate : 48.0 kHz 
Frame rate : 46.875 FPS (1024 SPF) 
Compression mode : Lossy 
Stream size : 157 MiB (14%) 
Language : Hindi 
Default : Yes 
Forced : No 














>