Padman 2018 Hindi 720p

.
Download .Torrent Magnet
Torren Name: Padman 2018 Hindi 720p
Org Name: Padman
File size: 459.2 MB
Categories: Movies
Uploader: TodayPk.se
Seeders: 9 Leechers: 7 Downloaded: 266
Last scrape: 15 May 2018 11:34:43


ebff283becf5d0f55d55d198c11928ba.png


Format : Matroska 
Format version : Version 4 / Version 2 
File size : 459 MiB 
Duration : 2 h 10 min 
Overall bit rate : 491 kb/s 
Movie name : Padman 2018 WWW.GOPISAHI.PW 

Video 
Format : AVC 
Codec ID : V_MPEG4/ISO/AVC 
Duration : 2 h 10 min 
Bit rate : 400 kb/s 
Width : 1 272 pixels 
Height : 568 pixels 
Display aspect ratio : 2.25:1 
Frame rate mode : Constant 
Frame rate : 22.525 FPS 
Stream size : 374 MiB (81%) 
Title : WWW.GOPISAHI.PW 
Writing library : x264 core 148 r2708 86b7198 

Audio 
Format : AAC 
Duration : 2 h 10 min 
Bit rate : 89.3 kb/s 
Channel(s) : 6 channels 
Channel positions : Front: L C R, Side: L R, LFE 
Sampling rate : 44.1 kHz 
Frame rate : 43.066 FPS (1024 SPF) 
Compression mode : Lossy 
Stream size : 83.5 MiB (18%) 
Title : WWW.GOPISAHI.PW 
Language : Hindi 




>