Omerta 18) Hindi Desi Pre-DVDRip x264 AAC 700M

.
Download .Torrent Magnet
Torren Name: Omerta 18) Hindi Desi Pre-DVDRip x264 AAC 700M
Org Name: Omerta
File size: 699.33 MB
Categories: Hindi
Uploader: TodayPk.se
Seeders: 63 Leechers: 16 Downloaded: 395
Last scrape: 15 May 2018 11:19:37


ebff283becf5d0f55d55d198c11928ba.png





General 
Unique ID : 15677385412882464949745709441673347137 (0xBCB5AC72C42049E8A93D6CEA24C4041) 
Complete name : www.MovCR.com - Omerta (2018) Hindi Desi Pre-DVDRip x264 AAC 700MB [MovCR].mkv 
Format : Matroska 
Format version : Version 4 / Version 2 
File size : 699 MiB 
Duration : 1 h 32 min 
Overall bit rate : 1 053 kb/s 
Movie name : www.MovCR.com 
Encoded date : UTC 2018-05-11 15:27:08 
Writing application : mkvmerge v22.0.0 ('At The End Of The World') 64-bit 
Writing library : libebml v1.3.5 + libmatroska v1.4.8 

Video 
ID : 1 
Format : AVC 
Format/Info : Advanced Video Codec 
Format profile : [email protected] 
Format settings, CABAC : Yes 
Format settings, ReFrames : 4 frames 
Codec ID : V_MPEG4/ISO/AVC 
Duration : 1 h 32 min 
Bit rate : 941 kb/s 
Width : 648 pixels 
Height : 288 pixels 
Display aspect ratio : 2.25:1 
Frame rate mode : Constant 
Frame rate : 25.000 FPS 
Color space : YUV 
Chroma subsampling : 4:2:0 
Bit depth : 8 bits 
Scan type : Progressive 
Bits/(Pixel*Frame) : 0.202 
Stream size : 623 MiB (89%) 
Title : www.MovCR.com 
Writing library : x264 core 148 r2708 86b7198 
Encoding settings : cabac=1 / ref=1 / deblock=1:0:0 / analyse=0x1:0x111 / me=hex / subme=2 / psy=1 / psy_rd=1.00:0.00 / mixed_ref=0 / me_range=16 / chroma_me=1 / trellis=0 / 8x8dct=0 / cqm=0 / deadzone=21,11 / fast_pskip=1 / chroma_qp_offset=0 / threads=9 / lookahead_threads=2 / sliced_threads=0 / nr=0 / decimate=1 / interlaced=0 / bluray_compat=0 / constrained_intra=0 / bframes=3 / b_pyramid=2 / b_adapt=1 / b_bias=0 / direct=1 / weightb=1 / open_gop=0 / weightp=1 / keyint=250 / keyint_min=25 / scenecut=40 / intra_refresh=0 / rc_lookahead=10 / rc=abr / mbtree=1 / bitrate=941 / ratetol=1.0 / qcomp=0.60 / qpmin=0 / qpmax=69 / qpstep=4 / vbv_maxrate=20000 / vbv_bufsize=25000 / nal_hrd=none / filler=0 / ip_ratio=1.40 / aq=1:1.00 
Default : Yes 
Forced : No 
Color range : Limited 
Color primaries : BT.709 
Transfer characteristics : BT.709 
Matrix coefficients : BT.709 

Audio 
ID : 2 
Format : AAC 
Format/Info : Advanced Audio Codec 
Format profile : LC 
Codec ID : A_AAC 
Duration : 1 h 32 min 
Bit rate : 112 kb/s 
Channel(s) : 2 channels 
Channel positions : Front: L R 
Sampling rate : 44.1 kHz 
Frame rate : 43.066 FPS (1024 spf) 
Compression mode : Lossy 
Delay relative to video : -23 ms 
Stream size : 74.5 MiB (11%) 
Title : www.MovCR.com 
Language : English 
Default : Yes 
Forced : No 









>