Jai Lava Kusa (2018) Hindi Dubbed Movie HD TVRip x264 AAC

.
Download .Torrent Magnet
Torren Name: Jai Lava Kusa (2018) Hindi Dubbed Movie HD TVRip x264 AAC
Org Name: Jai Lava Kusa
File size: 1.06 GB
Categories: Movies
Uploader: TodayPk.se
Seeders: 133 Leechers: 44 Downloaded: 1078
Last scrape: 15 May 2018 10:59:54


ebff283becf5d0f55d55d198c11928ba.png



General 
Complete name : Jai Lava Kusa (2018) Hindi Dubbed Movie HD TVRip x264 AAC by Full4movies.mkv 
Format : Matroska 
Format version : Version 4 / Version 2 
File size : 1.06 GiB 
Duration : 2 h 14 min 
Overall bit rate : 1 129 kb/s 
Movie name : Jai Lava Kusa (2018) Hindi 
Encoded date : UTC 2018-05-13 12:39:33 
Writing application : mkvmerge v8.1.0 ('Psychedelic Postcard') 32bit 
Writing library : libebml v1.3.1 + libmatroska v1.4.2 

Video 
ID : 1 
Format : AVC 
Format/Info : Advanced Video Codec 
Format profile : [email protected] 
Format settings, CABAC : Yes 
Format settings, RefFrames : 4 frames 
Codec ID : V_MPEG4/ISO/AVC 
Duration : 2 h 14 min 
Bit rate : 968 kb/s 
Width : 768 pixels 
Height : 430 pixels 
Display aspect ratio : 1.994 
Original display aspect ratio : 16:9 
Frame rate mode : Variable 
Frame rate : 24.959 FPS 
Color space : YUV 
Chroma subsampling : 4:2:0 
Bit depth : 8 bits 
Scan type : Progressive 
Bits/(Pixel*Frame) : 0.117 
Stream size : 932 MiB (86%) 
Writing library : x264 core 148 r2708 86b7198 
Language : Telugu 
Default : Yes 
Forced : No 
Color range : Limited 
Color primaries : BT.601 PAL 
Transfer characteristics : BT.709 
Matrix coefficients : BT.601 

Audio 
ID : 2 
Format : AAC 
Format/Info : Advanced Audio Codec 
Format profile : LC 
Codec ID : A_AAC 
Duration : 2 h 14 min 
Bit rate : 160 kb/s 
Channel(s) : 2 channels 
Channel positions : Front: L R 
Sampling rate : 48.0 kHz 
Frame rate : 46.875 FPS (1024 SPF) 
Compression mode : Lossy 
Delay relative to video : -21 ms 
Stream size : 154 MiB (14%) 
Language : Hindi 
Default : Yes 
Forced : No 

Screen Shoots 


>