Curse of the Golden Flower (2006) Dual Audio Hindi 720p BluRay 1.1GB

.
Download .Torrent Magnet
Torren Name: Curse of the Golden Flower (2006) Dual Audio Hindi 720p BluRay 1.1GB
Org Name: Curse of the Golden Flower
File size: 1.13 GB
Categories: Movies
Uploader: TodayPk.se
Seeders: 97 Leechers: 88 Downloaded: 739
Last scrape: 15 May 2018 10:48:02


ebff283becf5d0f55d55d198c11928ba.png





Movie Info: 

Genres: Action, Drama, Romance 
Directed by: Yimou Zhang 
Writers: Zhihong Bian, Yu Cao 
Stars Cast: Yun-Fat Chow, Li Gong, Jay Chou 
IMDb: http://www.imdb.com/title/tt0473444/ 
Language: Hindi + Chinese 

Video 
ID : 1 
Format : AVC 
Format/Info : Advanced Video Codec 
Format profile : [email protected] 
Format settings : CABAC / 4 Ref Frames 
Format settings, CABAC : Yes 
Format settings, RefFrames : 4 frames 
Codec ID : V_MPEG4/ISO/AVC 
Duration : 1 h 53 min 
Bit rate : 1 180 kb/s 
Width : 1 280 pixels 
Height : 544 pixels 
Display aspect ratio : 2.35:1 
Frame rate mode : Constant 
Frame rate : 23.976 (24000/1001) FPS 
Color space : YUV 
Chroma subsampling : 4:2:0 
Bit depth : 8 bits 
Scan type : Progressive 
Bits/(Pixel*Frame) : 0.071 
Stream size : 962 MiB (83%) 

Audio #1 
ID : 2 
Format : MPEG Audio 
Format version : Version 1 
Format profile : Layer 3 
Format settings : Joint stereo / MS Stereo 
Codec ID : A_MPEG/L3 
Codec ID/Hint : MP3 
Duration : 1 h 53 min 
Bit rate mode : Variable 
Bit rate : 128 kb/s 
Channel(s) : 2 channels 
Sampling rate : 44.1 kHz 
Frame rate : 38.281 FPS (1152 SPF) 
Compression mode : Lossy 
Stream size : 103 MiB (9%) 
Writing library : LAME3.99r 
Encoding settings : -m j -V 4 -q 3 -lowpass 17 --abr 128 
Language : Hindi 
Default : Yes 
Forced : Yes 

Audio #2 
ID : 3 
Format : MPEG Audio 
Format version : Version 1 
Format profile : Layer 3 
Format settings : Joint stereo / MS Stereo 
Codec ID : A_MPEG/L3 
Codec ID/Hint : MP3 
Duration : 1 h 53 min 
Bit rate mode : Variable 
Bit rate : 111 kb/s 
Nominal bit rate : 128 kb/s 
Channel(s) : 2 channels 
Sampling rate : 44.1 kHz 
Frame rate : 38.281 FPS (1152 SPF) 
Compression mode : Lossy 
Stream size : 90.1 MiB (8%) 
Writing library : LAME3.99r 
Encoding settings : -m j -V 4 -q 3 -lowpass 17 --abr 128 
Language : Chinese 
Default : No 
Forced : No 


Screenshots: 








>