Red Sparrow (2018) 720p BluRay x264 Dual Audio [Hindi DD5.1 - English DD

.
Download .Torrent Magnet
Torren Name: Red Sparrow (2018) 720p BluRay x264 Dual Audio [Hindi DD5.1 - English DD
Org Name: Red Sparrow
File size: 2.15 GB
Categories: Movies
Uploader: TodayPk.se
Seeders: 14 Leechers: 17 Downloaded: 84
Last scrape: 15 May 2018 07:31:09


ebff283becf5d0f55d55d198c11928ba.png





Red Sparrow (2018) 720p BluRay x264 Dual Audio [Hindi DD5.1 - English DD5.1] - Msubs ~ Ranvijay 

Buy RDP Online 


Thanks To Rajput For Hindi Audio 

Format                                   : Matroska 
Format version                           : Version 4 / Version 2 
File size                                : 2.15 GiB 
Duration                                 : 2 h 20 min 
Overall bit rate                         : 2 192 kb/s 
Movie name                               : Red Sparrow (2018) 720p BluRay x264 Dual Audio [Hindi DD5.1 - English DD5.1] - Msubs ~ Ranvijay 

Video 
ID                                       : 1 
Format                                   : AVC 
Duration                                 : 2 h 20 min 
Bit rate                                 : 1 500 kb/s 
Width                                    : 1 280 pixels 
Height                                   : 536 pixels 
Display aspect ratio                     : 2.40:1 
Frame rate mode                          : Constant 
Frame rate                               : 23.976 (23976/1000) FPS 
Stream size                              : 1.47 GiB (68%) 
Title                                    : ~Ranvijay~ 
Default                                  : Yes 
Forced                                   : No 

Audio #1 
ID                                       : 2 
Format                                   : AC-3 
Format/Info                              : Audio Coding 3 
Codec ID                                 : A_AC3 
Duration                                 : 2 h 20 min 
Bit rate mode                            : Constant 
Bit rate                                 : 448 kb/s 
Channel(s)                               : 6 channels 
Channel positions                        : Front: L C R, Side: L R, LFE 
Sampling rate                            : 48.0 kHz 
Frame rate                               : 31.250 FPS (1536 SPF) 
Bit depth                                : 16 bits 
Compression mode                         : Lossy 
Delay relative to video                  : -43 ms 
Stream size                              : 449 MiB (20%) 
Title                                    : ~Ranvijay~ 
Language                                 : Hindi 
Service kind                             : Complete Main 
Default                                  : Yes 
Forced                                   : No 

Audio #2 
ID                                       : 3 
Format                                   : AAC 
Format/Info                              : Advanced Audio Codec 
Format profile                           : LC 
Codec ID                                 : A_AAC-2 
Duration                                 : 2 h 20 min 
Bit rate                                 : 224 kb/s 
Channel(s)                               : 2 channels 
Channel positions                        : Front: L R 
Sampling rate                            : 48.0 kHz 
Frame rate                               : 46.875 FPS (1024 SPF) 
Compression mode                         : Lossy 
Delay relative to video                  : -43 ms 
Stream size                              : 225 MiB (10%) 
Title                                    : ~Ranvijay~ 
Language                                 : English 
Default                                  : No 
Forced                                   : No 

Text #1 
ID                                       : 4 
Format                                   : PGS 
Muxing mode                              : zlib 
Codec ID                                 : S_HDMV/PGS 
Codec ID/Info                            : Picture based subtitle format used on BDs/HD-DVDs 
Duration                                 : 2 h 18 min 
Bit rate                                 : 22.1 kb/s 
Count of elements                        : 2978 
Stream size                              : 21.9 MiB (1%) 
Title                                    : ~Ranvijay~ 
Language                                 : Hindi 
Default                                  : Yes 
Forced                                   : No 

Text #2 
ID                                       : 5 
Format                                   : PGS 
Muxing mode                              : zlib 
Codec ID                                 : S_HDMV/PGS 
Codec ID/Info                            : Picture based subtitle format used on BDs/HD-DVDs 
Duration                                 : 2 h 12 min 
Bit rate                                 : 35.3 kb/s 
Count of elements                        : 3554 
Stream size                              : 33.5 MiB (2%) 
Title                                    : ~Ranvijay~ 
Language                                 : English 
Default                                  : No 
Forced                                   : No 











>