Red Sparrow (2018) 720p BluRay x264 Dual Audio [Hindi DD5.1 - English DD2.0] -

.
Download .Torrent Magnet
Torren Name: Red Sparrow (2018) 720p BluRay x264 Dual Audio [Hindi DD5.1 - English DD2.0] -
Org Name: Red Sparrow
File size: 1.49 GB
Categories: Movies
Uploader: TodayPk.se
Seeders: 24 Leechers: 24 Downloaded: 178
Last scrape: 15 May 2018 07:19:23


ebff283becf5d0f55d55d198c11928ba.png





Red Sparrow (2018) 720p BluRay x264 Dual Audio [Hindi DD5.1 - English DD2.0] - Msubs ~ Ranvijay 

Buy RDP Online 



Thanks To Rajput For Hindi Audio 

Format                                   : Matroska 
Format version                           : Version 4 / Version 2 
File size                                : 1.49 GiB 
Duration                                 : 2 h 20 min 
Overall bit rate                         : 1 523 kb/s 

Video 
ID                                       : 1 
Format                                   : AVC 
Format/Info                              : Advanced Video Codec 
Duration                                 : 2 h 20 min 
Bit rate                                 : 1 179 kb/s 
Width                                    : 1 280 pixels 
Height                                   : 536 pixels 
Display aspect ratio                     : 2.40:1 
Frame rate mode                          : Constant 
Frame rate                               : 23.976 (24000/1001) FPS 
Color space                              : YUV 
Chroma subsampling                       : 4:2:0 
Bit depth                                : 8 bits 
Scan type                                : Progressive 
Bits/(Pixel*Frame)                       : 0.072 
Stream size                              : 1.15 GiB (77%) 
Title                                    : ~Ranvijay~ 
Language                                 : English 
Default                                  : Yes 
Forced                                   : No 

Audio #1 
ID                                       : 2 
Format                                   : AC-3 
Format/Info                              : Audio Coding 3 
Codec ID                                 : A_AC3 
Duration                                 : 2 h 20 min 
Bit rate mode                            : Constant 
Bit rate                                 : 224 kb/s 
Channel(s)                               : 6 channels 
Channel positions                        : Front: L C R, Side: L R, LFE 
Sampling rate                            : 48.0 kHz 
Frame rate                               : 31.250 FPS (1536 SPF) 
Bit depth                                : 16 bits 
Compression mode                         : Lossy 
Stream size                              : 225 MiB (15%) 
Title                                    : ~Ranvijay~ 
Language                                 : Hindi 
Service kind                             : Complete Main 
Default                                  : Yes 
Forced                                   : No 

Audio #2 
ID                                       : 3 
Format                                   : AAC 
Format/Info                              : Advanced Audio Codec 
Format profile                           : HE-AAC / LC 
Format settings                          : Explicit 
Codec ID                                 : A_AAC-2 
Duration                                 : 2 h 20 min 
Bit rate                                 : 99.8 kb/s 
Channel(s)                               : 6 channels 
Channel positions                        : Front: L C R, Side: L R, LFE 
Sampling rate                            : 48.0 kHz / 24.0 kHz 
Frame rate                               : 23.438 FPS (1024 SPF) 
Compression mode                         : Lossy 
Delay relative to video                  : 31 ms 
Stream size                              : 100 MiB (7%) 
Title                                    : ~Ranvijay~ 
Language                                 : English 
Default                                  : No 
Forced                                   : No 

Text #1 
ID                                       : 4 
Format                                   : PGS 
Muxing mode                              : zlib 
Codec ID                                 : S_HDMV/PGS 
Codec ID/Info                            : Picture based subtitle format used on BDs/HD-DVDs 
Duration                                 : 2 h 12 min 
Bit rate                                 : 35.3 kb/s 
Count of elements                        : 3554 
Stream size                              : 33.5 MiB (2%) 
Title                                    : ~Ranvijay~ 
Language                                 : English 
Default                                  : No 
Forced                                   : No 

Text #2 
ID                                       : 5 
Format                                   : PGS 
Muxing mode                              : zlib 
Codec ID                                 : S_HDMV/PGS 
Codec ID/Info                            : Picture based subtitle format used on BDs/HD-DVDs 
Duration                                 : 2 h 18 min 
Bit rate                                 : 22.1 kb/s 
Count of elements                        : 2978 
Stream size                              : 21.9 MiB (1%) 
Title                                    : ~Ranvijay~ 
Language                                 : Hindi 
Default                                  : Yes 
Forced                                   : No 













>