Red Sparrow 2018 BluRay 1080p x265 10bit Eng-Hindi AC3 DD 5.1 E-sub

.
Download .Torrent Magnet
Torren Name: Red Sparrow 2018 BluRay 1080p x265 10bit Eng-Hindi AC3 DD 5.1 E-sub
Org Name: Red Sparrow
File size: 3.78 GB
Categories: Movies
Uploader: TodayPk.se
Seeders: 15 Leechers: 57 Downloaded: 125
Last scrape: 15 May 2018 07:07:06


ebff283becf5d0f55d55d198c11928ba.png



Red Sparrow 2018 BluRay 1080p x265 10bit Eng-Hindi AC3 DD 5.1 E-sub [Team SSX] 





General 

Format : Matroska 
Format version : Version 4 / Version 2 
File size : 3.78 GiB 
Duration : 2 h 20 min 
Overall bit rate : 3 857 kb/s 


Video 
ID : 1 
Format : HEVC 
Format/Info : High Efficiency Video Coding 
Format profile : Main [email protected]@Main 
Codec ID : V_MPEGH/ISO/HEVC 
Duration : 2 h 20 min 
Bit rate : 2 936 kb/s 
Width : 1 920 pixels 
Height : 800 pixels 
Display aspect ratio : 2.40:1 
Frame rate mode : Constant 
Frame rate : 23.976 (24000/1001) FPS 
Color space : YUV 
Chroma subsampling : 4:2:0 
Bit depth : 10 bits 
Bits/(Pixel*Frame) : 0.080 
Stream size : 2.88 GiB (76%) 
Language : English 
Default : Yes 
Forced : No 

Audio #1 
ID : 2 
Format : AC-3 
Format/Info : Audio Coding 3 
Codec ID : A_AC3 
Duration : 2 h 20 min 
Bit rate mode : Constant 
Bit rate : 448 kb/s 
Channel(s) : 6 channels 
Channel positions : Front: L C R, Side: L R, LFE 
Sampling rate : 48.0 kHz 
Frame rate : 31.250 FPS (1536 SPF) 
Bit depth : 16 bits 
Compression mode : Lossy 
Stream size : 449 MiB (12%) 
Language : English 
Service kind : Complete Main 
Default : No 
Forced : No 

Audio #2 
ID : 5 
Format : AC-3 
Format/Info : Audio Coding 3 
Codec ID : A_AC3 
Duration : 2 h 20 min 
Bit rate mode : Constant 
Bit rate : 448 kb/s 
Channel(s) : 6 channels 
Channel positions : Front: L C R, Side: L R, LFE 
Sampling rate : 48.0 kHz 
Frame rate : 31.250 FPS (1536 SPF) 
Bit depth : 16 bits 
Compression mode : Lossy 
Stream size : 449 MiB (12%) 
Language : Hindi 
Service kind : Complete Main 
Default : Yes 
Forced : No 

Text #1 
ID : 3 
Format : PGS 
Muxing mode : zlib 
Codec ID : S_HDMV/PGS 
Codec ID/Info : Picture based subtitle format used on BDs/HD-DVDs 
Duration : 2 h 11 min 
Bit rate : 28.9 kb/s 
Count of elements : 3198 
Stream size : 27.3 MiB (1%) 
Language : English 
Default : No 
Forced : No 

Text #2 
ID : 4 
Format : PGS 
Muxing mode : zlib 
Codec ID : S_HDMV/PGS 
Codec ID/Info : Picture based subtitle format used on BDs/HD-DVDs 
Duration : 6 s 173 ms 
Bit rate : 74.8 kb/s 
Count of elements : 4 
Stream size : 56.3 KiB (0%) 
Title : Forced only 
Language : English 
Default : No 
Forced : No 

Text #3 
ID : 6 
Format : PGS 
Muxing mode : zlib 
Codec ID : S_HDMV/PGS 
Codec ID/Info : Picture based subtitle format used on BDs/HD-DVDs 
Duration : 2 h 18 min 
Bit rate : 22.1 kb/s 
Count of elements : 2978 
Stream size : 21.9 MiB (1%) 
Language : Hindi 
Default : Yes 
Forced : No 







>