Air Force One 1997 720p Esub BluRay 5.1 Dual Audio E

.
Download .Torrent Magnet
Torren Name: Air Force One 1997 720p Esub BluRay 5.1 Dual Audio E
Org Name: Air Force One
File size: 689.9 MB
Categories: Movies
Uploader: TodayPk.se
Seeders: 0 Leechers: 0 Downloaded: 0
Last scrape: 20 May 2018 12:07:51


ebff283becf5d0f55d55d198c11928ba.png



Format : Matroska 
Format version : Version 4 / Version 2 
File size : 690 MiB 
Duration : 2 h 4 min 
Overall bit rate : 774 kb/s 
Movie name : Air Force One 1997 GOPISAHI 


Video 
Format : AVC 
Codec ID : V_MPEG4/ISO/AVC 
Duration : 2 h 4 min 
Bit rate : 600 kb/s 
Width : 1 280 pixels 
Height : 528 pixels 
Display aspect ratio : 2.40:1 
Frame rate mode : Constant 
Frame rate : 23.976 (24000/1001) FPS 
Color space : YUV 
Chroma subsampling : 4:2:0 
Bit depth : 8 bits 
Scan type : Progressive 
Bits/(Pixel*Frame) : 0.037 
Stream size : 534 MiB (77%) 
Title : GOPISAHI 
Writing library : x264 core 148 r2708 86b7198 

Audio #1 
Format : AAC 
Duration : 2 h 4 min 
Bit rate : 88.6 kb/s 
Channel(s) : 6 channels 
Channel positions : Front: L C R, Side: L R, LFE 
Sampling rate : 44.1 kHz 
Frame rate : 43.066 FPS (1024 SPF) 
Compression mode : Lossy 
Stream size : 78.9 MiB (11%) 
Title : GOPISAHI 
Language : English 

Audio #2 
Format : AAC 
Duration : 1 h 58 min 
Bit rate : 87.5 kb/s 
Channel(s) : 6 channels 
Channel positions : Front: L C R, Side: L R, LFE 
Sampling rate : 44.1 kHz 
Frame rate : 43.066 FPS (1024 SPF) 
Compression mode : Lossy 
Delay relative to video : 500 ms 
Stream size : 74.1 MiB (11%) 
Title : GOPISAHI 
Language : Hindi 

Text 
Language : English 



>