Insidious-The Last Key (2018) 720p BluRay x264 Dual Audio [Hindi DD5.1 - English DD2.0

.
Download .Torrent Magnet
Torren Name: Insidious-The Last Key (2018) 720p BluRay x264 Dual Audio [Hindi DD5.1 - English DD2.0
Org Name: Insidious-The Last Key
File size: 1.28 GB
Categories: Movies
Uploader: TodayPk.se
Seeders: 0 Leechers: 0 Downloaded: 0
Last scrape: 23 May 2018 22:35:56


ebff283becf5d0f55d55d198c11928ba.png





Insidious-The Last Key (2018) 720p BluRay x264 Dual Audio [Hindi DD5.1 - English DD2.0] -Esub ~ Ranvijay 

Buy RDP Online 


Thanks To HelloWorld For Hindi Audio 

Format                                   : Matroska 
Format version                           : Version 4 / Version 2 
File size                                : 1.25 GiB 
Duration                                 : 1 h 43 min 
Overall bit rate                         : 1 737 kb/s 
Movie name                               : Insidious-The Last Key (2018) 720p BluRay x264 Dual Audio [Hindi DD5.1 - English DD2.0] ~ Ranvijay 

Video 
ID                                       : 1 
Format                                   : AVC 
Duration                                 : 1 h 43 min 
Bit rate                                 : 1 252 kb/s 
Width                                    : 1 280 pixels 
Height                                   : 538 pixels 
Display aspect ratio                     : 2.40:1 
Frame rate mode                          : Constant 
Frame rate                               : 23.976 (24000/1001) FPS 
Color space                              : YUV 
Chroma subsampling                       : 4:2:0 
Bit depth                                : 8 bits 
Scan type                                : Progressive 
Bits/(Pixel*Frame)                       : 0.076 
Stream size                              : 926 MiB (72%) 
Title                                    : ~Ranvijay~ 
Writing library                          : x264 core 133 r2334 a3ac64b 
Default                                  : Yes 
Forced                                   : No 

Audio #1 
ID                                       : 2 
Format                                   : AC-3 
Format/Info                              : Audio Coding 3 
Codec ID                                 : A_AC3 
Duration                                 : 1 h 43 min 
Bit rate mode                            : Constant 
Bit rate                                 : 384 kb/s 
Channel(s)                               : 6 channels 
Channel positions                        : Front: L C R, Side: L R, LFE 
Sampling rate                            : 48.0 kHz 
Frame rate                               : 31.250 FPS (1536 SPF) 
Bit depth                                : 16 bits 
Compression mode                         : Lossy 
Delay relative to video                  : 11 s 700 ms 
Stream size                              : 283 MiB (22%) 
Title                                    : ~Ranvijay~ 
Language                                 : Hindi 
Service kind                             : Complete Main 
Default                                  : Yes 
Forced                                   : No 

Audio #2 
ID                                       : 3 
Format                                   : AAC 
Format/Info                              : Advanced Audio Codec 
Format profile                           : HE-AAC / LC 
Format settings                          : Explicit 
Codec ID                                 : A_AAC-2 
Duration                                 : 1 h 43 min 
Bit rate                                 : 100.0 kb/s 
Channel(s)                               : 2 channels 
Channel positions                        : Front: L R 
Sampling rate                            : 48.0 kHz / 24.0 kHz 
Frame rate                               : 23.438 FPS (1024 SPF) 
Compression mode                         : Lossy 
Delay relative to video                  : 31 ms 
Stream size                              : 74.0 MiB (6%) 
Title                                    : ~Ranvijay~ 
Language                                 : English 
Default                                  : No 
Forced                                   : No 

Text 
ID                                       : 4 
Format                                   : UTF-8 
Codec ID                                 : S_TEXT/UTF8 
Codec ID/Info                            : UTF-8 Plain Text 
Duration                                 : 1 h 34 min 
Bit rate                                 : 34 b/s 
Count of elements                        : 832 
Stream size                              : 23.7 KiB (0%) 
Title                                    : ~Ranvijay~ 
Language                                 : English 
Default                                  : Yes 
Forced                                   : No 

Menu 
00:00:00.000                             : en:00:00:00.000 
00:16:21.397                             : en:00:16:21.397 
00:19:55.111                             : en:00:19:55.111 
00:22:29.056                             : en:00:22:29.056 
00:29:03.617                             : en:00:29:03.617 
00:36:24.307                             : en:00:36:24.307 
00:44:05.685                             : en:00:44:05.685 
00:54:14.168                             : en:00:54:14.168 
00:57:21.855                             : en:00:57:21.855 
01:02:08.183                             : en:01:02:08.183 
01:05:17.664                             : en:01:05:17.664 
01:10:17.964                             : en:01:10:17.964 
01:16:58.239                             : en:01:16:58.239 
01:22:11.593                             : en:01:22:11.593 
01:29:49.467                             : en:01:29:49.467 
01:34:34.252                             : en:01:34:34.252 













>