Insidious The Last Key (2018) 1080p BluRay HEVC x265 Eng-Hindi AC3 DD 5.1

.
Download .Torrent Magnet
Torren Name: Insidious The Last Key (2018) 1080p BluRay HEVC x265 Eng-Hindi AC3 DD 5.1
Org Name: Insidious The Last Key
File size: 1.04 GB
Categories: Movies
Uploader: TodayPk.se
Seeders: 40 Leechers: 32 Downloaded: 135
Last scrape: 15 May 2018 06:08:58


ebff283becf5d0f55d55d198c11928ba.png


Insidious The Last Key (2018) 1080p BluRay HEVC x265 Eng-Hindi AC3 DD 5.1 




General 

Format                                   : Matroska 
Format version                           : Version 4 / Version 2 
File size                                : 1.04 GiB 
Duration                                 : 1 h 43 min 
Overall bit rate                         : 1 442 kb/s 



Video 
ID                                       : 1 
Format                                   : HEVC 
Format/Info                              : High Efficiency Video Coding 
Format profile                           : [email protected]@Main 
Codec ID                                 : V_MPEGH/ISO/HEVC 
Duration                                 : 1 h 43 min 
Bit rate                                 : 671 kb/s 
Width                                    : 1 920 pixels 
Height                                   : 808 pixels 
Display aspect ratio                     : 2.40:1 
Frame rate mode                          : Variable 
Frame rate                               : 23.976 FPS 
Color space                              : YUV 
Chroma subsampling                       : 4:2:0 
Bit depth                                : 8 bits 
Bits/(Pixel*Frame)                       : 0.018 
Stream size                              : 497 MiB (47%) 
Default                                  : Yes 
Forced                                   : No 

Audio #1 
ID                                       : 2 
Format                                   : AAC 
Format/Info                              : Advanced Audio Codec 
Format profile                           : LC 
Codec ID                                 : A_AAC-2 
Duration                                 : 1 h 43 min 
Bit rate                                 : 384 kb/s 
Channel(s)                               : 6 channels 
Channel positions                        : Front: L C R, Side: L R, LFE 
Sampling rate                            : 48.0 kHz 
Frame rate                               : 46.875 FPS (1024 SPF) 
Compression mode                         : Lossy 
Stream size                              : 284 MiB (27%) 
Language                                 : English 
Default                                  : No 
Forced                                   : No 

Audio #2 
ID                                       : 3 
Format                                   : AC-3 
Format/Info                              : Audio Coding 3 
Codec ID                                 : A_AC3 
Duration                                 : 1 h 43 min 
Bit rate mode                            : Constant 
Bit rate                                 : 384 kb/s 
Channel(s)                               : 6 channels 
Channel positions                        : Front: L C R, Side: L R, LFE 
Sampling rate                            : 48.0 kHz 
Frame rate                               : 31.250 FPS (1536 SPF) 
Bit depth                                : 16 bits 
Compression mode                         : Lossy 
Delay relative to video                  : 12 s 0 ms 
Stream size                              : 283 MiB (27%) 
Language                                 : Hindi 
Service kind                             : Complete Main 
Default                                  : Yes 
Forced                                   : No 

Menu 
00:00:00.000                             : :00:00:00.000 
00:16:21.397                             : :00:16:21.397 
00:19:55.111                             : :00:19:55.111 
00:22:29.056                             : :00:22:29.056 
00:29:03.617                             : :00:29:03.617 
00:36:24.307                             : :00:36:24.307 
00:44:05.685                             : :00:44:05.685 
00:54:14.168                             : :00:54:14.168 
00:57:21.855                             : :00:57:21.855 
01:02:08.183                             : :01:02:08.183 
01:05:17.664                             : :01:05:17.664 
01:10:17.964                             : :01:10:17.964 
01:16:58.239                             : :01:16:58.239 
01:22:11.593                             : :01:22:11.593 
01:29:49.467                             : :01:29:49.467 
01:34:34.252                             : :01:34:34.252 
















>