Insidious The Last Key 2018 1080p BluRay x264 Dual Audio [Hindi DD 5.1 - English 2.0] ESub

.
Download .Torrent Magnet
Torren Name: Insidious The Last Key 2018 1080p BluRay x264 Dual Audio [Hindi DD 5.1 - English 2.0] ESub
Org Name: Insidious The Last Key
File size: 1.51 GB
Categories: Movies
Uploader: TodayPk.se
Seeders: 155 Leechers: 181 Downloaded: 484
Last scrape: 15 May 2018 05:53:23


ebff283becf5d0f55d55d198c11928ba.png





General 
Format : Matroska 
Format version : Version 4 / Version 2 
File size : 1.51 GiB 
Duration : 1 h 43 min 
Overall bit rate : 2 091 kb/s 

Video 
ID : 1 
Format : AVC 
Format/Info : Advanced Video Codec 
Format profile : [email protected] 
Format settings : CABAC / 4 Ref Frames 
Format settings, CABAC : Yes 
Format settings, RefFrames : 4 frames 
Codec ID : V_MPEG4/ISO/AVC 
Duration : 1 h 43 min 
Bit rate : 1 600 kb/s 
Width : 1 908 pixels 
Height : 804 pixels 
Display aspect ratio : 2.40:1 
Frame rate mode : Constant 
Frame rate : 23.976 (24000/1001) FPS 
Color space : YUV 
Chroma subsampling : 4:2:0 
Bit depth : 8 bits 
Scan type : Progressive 
Bits/(Pixel*Frame) : 0.044 
Stream size : 1.14 GiB (76%) 
Writing library : x264 core 148 r2708 86b7198 
Default : Yes 
Forced : No 

Audio #1 
ID : 2 
Format : AC-3 
Format/Info : Audio Coding 3 
Codec ID : A_AC3 
Duration : 1 h 43 min 
Bit rate mode : Constant 
Bit rate : 384 kb/s 
Channel(s) : 6 channels 
Channel positions : Front: L C R, Side: L R, LFE 
Sampling rate : 48.0 kHz 
Frame rate : 31.250 FPS (1536 SPF) 
Bit depth : 16 bits 
Compression mode : Lossy 
Stream size : 283 MiB (18%) 
Language : Hindi 
Service kind : Complete Main 
Default : Yes 
Forced : No 

Audio #2 
ID : 3 
Format : AAC 
Format/Info : Advanced Audio Codec 
Format profile : HE-AAC / LC 
Format settings : Explicit 
Codec ID : A_AAC-2 
Duration : 1 h 43 min 
Bit rate : 127 kb/s 
Channel(s) : 2 channels 
Channel positions : Front: L R 
Sampling rate : 48.0 kHz / 24.0 kHz 
Frame rate : 23.438 FPS (1024 SPF) 
Compression mode : Lossy 
Stream size : 93.7 MiB (6%) 
Language : English 
Default : No 
Forced : No 

Text 
ID : 4 
Format : UTF-8 
Codec ID : S_TEXT/UTF8 
Codec ID/Info : UTF-8 Plain Text 
Duration : 1 h 36 min 
Bit rate : 38 b/s 
Count of elements : 1025 
Stream size : 27.4 KiB (0%) 
Default : Yes 
Forced : No 













>