Insidious The Last Key (2018) 1080p BluRay x264 Dual Audio [Hindi DD5.1 - English DD5

.
Download .Torrent Magnet
Torren Name: Insidious The Last Key (2018) 1080p BluRay x264 Dual Audio [Hindi DD5.1 - English DD5
Org Name: Insidious The Last Key
File size: 4.35 GB
Categories: Movies
Uploader: TodayPk.se
Seeders: 24 Leechers: 84 Downloaded: 46
Last scrape: 15 May 2018 05:51:55


ebff283becf5d0f55d55d198c11928ba.png





Insidious The Last Key (2018) 1080p BluRay x264 Dual Audio [Hindi DD5.1 - English DD5.1] - Esub ~ 



Thanks To HelloWorld For Hindi Audio 

Format                                   : Matroska 
Format version                           : Version 4 / Version 2 
File size                                : 4.32 GiB 
Duration                                 : 1 h 43 min 
Overall bit rate                         : 5 978 kb/s 
Movie name                               : Insidious: The Last Key (2017) 1080p BluRay x264 Dual Audio [Hindi DD5.1 - English DD5.1] - Esub ~ Ranvijay 

Video 
ID                                       : 1 
Format                                   : AVC 
Format/Info                              : Advanced Video Codec 
Duration                                 : 1 h 43 min 
Bit rate                                 : 5 142 kb/s 
Width                                    : 1 920 pixels 
Height                                   : 800 pixels 
Display aspect ratio                     : 2.40:1 
Frame rate mode                          : Constant 
Frame rate                               : 23.976 (24000/1001) FPS 
Color space                              : YUV 
Chroma subsampling                       : 4:2:0 
Bit depth                                : 8 bits 
Scan type                                : Progressive 
Bits/(Pixel*Frame)                       : 0.140 
Stream size                              : 3.71 GiB (86%) 
Title                                    : ~Ranvijay~ 
Language                                 : English 
Default                                  : Yes 
Forced                                   : No 

Audio #1 
ID                                       : 2 
Format                                   : AC-3 
Format/Info                              : Audio Coding 3 
Codec ID                                 : A_AC3 
Duration                                 : 1 h 43 min 
Bit rate mode                            : Constant 
Bit rate                                 : 384 kb/s 
Channel(s)                               : 6 channels 
Channel positions                        : Front: L C R, Side: L R, LFE 
Sampling rate                            : 48.0 kHz 
Frame rate                               : 31.250 FPS (1536 SPF) 
Bit depth                                : 16 bits 
Compression mode                         : Lossy 
Stream size                              : 283 MiB (6%) 
Title                                    : ~Ranvijay~ 
Language                                 : Hindi 
Service kind                             : Complete Main 
Default                                  : Yes 
Forced                                   : No 

Audio #2 
ID                                       : 3 
Format                                   : AC-3 
Format/Info                              : Audio Coding 3 
Codec ID                                 : A_AC3 
Duration                                 : 1 h 43 min 
Bit rate mode                            : Constant 
Bit rate                                 : 448 kb/s 
Channel(s)                               : 6 channels 
Channel positions                        : Front: L C R, Side: L R, LFE 
Sampling rate                            : 48.0 kHz 
Frame rate                               : 31.250 FPS (1536 SPF) 
Bit depth                                : 16 bits 
Compression mode                         : Lossy 
Stream size                              : 331 MiB (7%) 
Title                                    : ~Ranvijay~ 
Language                                 : English 
Service kind                             : Complete Main 
Default                                  : No 
Forced                                   : No 

Text #1 
ID                                       : 4 
Format                                   : PGS 
Muxing mode                              : zlib 
Codec ID                                 : S_HDMV/PGS 
Codec ID/Info                            : Picture based subtitle format used on BDs/HD-DVDs 
Duration                                 : 1 h 36 min 
Bit rate                                 : 24.0 kb/s 
Count of elements                        : 2051 
Stream size                              : 16.6 MiB (0%) 
Title                                    : ~Ranvijay~ 
Language                                 : English 
Default                                  : Yes 
Forced                                   : No 

Text #2 
ID                                       : 5 
Format                                   : UTF-8 
Codec ID                                 : S_TEXT/UTF8 
Codec ID/Info                            : UTF-8 Plain Text 
Duration                                 : 1 h 34 min 
Bit rate                                 : 34 b/s 
Count of elements                        : 835 
Stream size                              : 23.6 KiB (0%) 
Title                                    : ~Ranvijay~ 
Language                                 : English 
Default                                  : No 
Forced                                   : No 

Text #3 
ID                                       : 6 
Format                                   : UTF-8 
Codec ID                                 : S_TEXT/UTF8 
Codec ID/Info                            : UTF-8 Plain Text 
Duration                                 : 1 h 36 min 
Bit rate                                 : 38 b/s 
Count of elements                        : 1025 
Stream size                              : 27.4 KiB (0%) 
Title                                    : ~Ranvijay~ 
Language                                 : English 
Default                                  : No 
Forced                                   : No 

















>