Red Sparrow (2018) 1080p BluRay x264 Dual Audio [Hindi DD5.1 - English DD5

.
Download .Torrent Magnet
Torren Name: Red Sparrow (2018) 1080p BluRay x264 Dual Audio [Hindi DD5.1 - English DD5
Org Name: Red Sparrow
File size: 4.68 GB
Categories: Movies
Uploader: TodayPk.se
Seeders: 30 Leechers: 60 Downloaded: 74
Last scrape: 15 May 2018 05:42:41


ebff283becf5d0f55d55d198c11928ba.png





Red Sparrow (2018) 1080p BluRay x264 Dual Audio [Hindi DD5.1 - English DD5.1] - Msubs ~ Ranvijay 

Buy RDP Online 


Format                                   : Matroska 
Format version                           : Version 4 / Version 2 
File size                                : 4.68 GiB 
Duration                                 : 2 h 20 min 
Overall bit rate                         : 4 776 kb/s 


Video 
ID                                       : 1 
Format                                   : AVC 
Duration                                 : 2 h 20 min 
Bit rate                                 : 4 311 kb/s 
Width                                    : 1 920 pixels 
Height                                   : 800 pixels 
Display aspect ratio                     : 2.40:1 
Frame rate mode                          : Constant 
Frame rate                               : 23.976 (24000/1001) FPS 
Stream size                              : 4.22 GiB (90%) 
Title                                    : ~Ranvijay~ 
Default                                  : Yes 
Forced                                   : No 

Audio 
ID                                       : 2 
Format                                   : AC-3 
Format/Info                              : Audio Coding 3 
Codec ID                                 : A_AC3 
Duration                                 : 2 h 20 min 
Bit rate mode                            : Constant 
Bit rate                                 : 448 kb/s 
Channel(s)                               : 6 channels 
Channel positions                        : Front: L C R, Side: L R, LFE 
Sampling rate                            : 48.0 kHz 
Frame rate                               : 31.250 FPS (1536 SPF) 
Bit depth                                : 16 bits 
Compression mode                         : Lossy 
Stream size                              : 449 MiB (9%) 
Title                                    : ~Ranvijay~ 
Language                                 : Hindi 
Service kind                             : Complete Main 
Default                                  : Yes 
Forced                                   : No 

Text #1 
ID                                       : 3 
Format                                   : PGS 
Muxing mode                              : zlib 
Codec ID                                 : S_HDMV/PGS 
Codec ID/Info                            : Picture based subtitle format used on BDs/HD-DVDs 
Duration                                 : 2 h 12 min 
Bit rate                                 : 35.3 kb/s 
Count of elements                        : 3554 
Stream size                              : 33.5 MiB (1%) 
Title                                    : ~Ranvijay~ 
Language                                 : English 
Default                                  : No 
Forced                                   : No 

Text #2 
ID                                       : 4 
Format                                   : PGS 
Muxing mode                              : zlib 
Codec ID                                 : S_HDMV/PGS 
Codec ID/Info                            : Picture based subtitle format used on BDs/HD-DVDs 
Duration                                 : 2 h 18 min 
Bit rate                                 : 22.1 kb/s 
Count of elements                        : 2978 
Stream size                              : 21.9 MiB (0%) 
Title                                    : ~Ranvijay~ 
Language                                 : Hindi 
Default                                  : Yes 
Forced                                   : No 





>