Nayaki (2016) Hindi Dubbed Movie HDRip x264 AAC ESubs

.
Download .Torrent Magnet
Torren Name: Nayaki (2016) Hindi Dubbed Movie HDRip x264 AAC ESubs
Org Name: Nayaki
File size: 1.14 GB
Categories: Hindi Dubbed Movies
Uploader: TodayPk.se
Seeders: 30 Leechers: 48 Downloaded: 71
Last scrape: 26 April 2018 03:54:14


ebff283becf5d0f55d55d198c11928ba.png



General 
Complete name : Nayaki (2016) Hindi Dubbed Movie HDRip x264 AAC ESubs by Full4movies.mkv 
Format : Matroska 
Format version : Version 4 / Version 2 
File size : 1.14 GiB 
Duration : 1 h 53 min 
Overall bit rate : 1 436 kb/s 
Movie name : Nayaki (2016) Hindi 
Encoded date : UTC 2018-04-24 17:28:12 
Writing application : mkvmerge v8.1.0 ('Psychedelic Postcard') 32bit 
Writing library : libebml v1.3.1 + libmatroska v1.4.2 

Video 
ID : 1 
Format : AVC 
Format/Info : Advanced Video Codec 
Format profile : [email protected] 
Format settings, CABAC : Yes 
Format settings, RefFrames : 4 frames 
Codec ID : V_MPEG4/ISO/AVC 
Duration : 1 h 53 min 
Bit rate : 1 300 kb/s 
Width : 1 280 pixels 
Height : 548 pixels 
Display aspect ratio : 2.35:1 
Frame rate mode : Constant 
Frame rate : 25.000 FPS 
Color space : YUV 
Chroma subsampling : 4:2:0 
Bit depth : 8 bits 
Scan type : Progressive 
Bits/(Pixel*Frame) : 0.074 
Stream size : 1.03 GiB (91%) 
Writing library : x264 core 148 r2708 86b7198 
Language : Hindi 
Default : Yes 
Forced : No 
Color range : Limited 
Color primaries : BT.709 
Transfer characteristics : BT.709 
Matrix coefficients : BT.709 

Audio 
ID : 2 
Format : MPEG Audio 
Format version : Version 1 
Format profile : Layer 3 
Mode : Joint stereo 
Mode extension : MS Stereo 
Codec ID : A_MPEG/L3 
Codec ID/Hint : MP3 
Duration : 1 h 53 min 
Bit rate mode : Constant 
Bit rate : 128 kb/s 
Channel(s) : 2 channels 
Sampling rate : 44.1 kHz 
Frame rate : 38.281 FPS (1152 SPF) 
Compression mode : Lossy 
Delay relative to video : -21 ms 
Stream size : 104 MiB (9%) 
Writing library : LAME3.98.2 
Language : Hindi 
Default : Yes 
Forced : Yes 

Text 
ID : 3 
Format : ASS 
Codec ID : S_TEXT/ASS 
Codec ID/Info : Advanced Sub Station Alpha 
Duration : 1 h 52 min 
Bit rate : 104 b/s 
Count of elements : 1641 
Compression mode : Lossless 
Stream size : 86.2 KiB (0%) 
Language : English 
Default : No 
Forced : No 

Screen Shoots 


>