Black Panther (2018) Hindi Dubbed Movie HC HDRip x264 AA

.
Download .Torrent Magnet
Torren Name: Black Panther (2018) Hindi Dubbed Movie HC HDRip x264 AA
Org Name: Black Panthe
File size: 1.04 GB
Categories: Hindi Dubbed Movies
Uploader: TodayPk.se
Seeders: 172 Leechers: 107 Downloaded: 1141
Last scrape: 24 April 2018 04:23:09


ebff283becf5d0f55d55d198c11928ba.png



General 
Complete name : Black Panther (2018) Hindi Dubbed Movie Pre-HC HDRip x264 AAC
Format : Matroska 
Format version : Version 4 / Version 2 
File size : 1.04 GiB 
Duration : 2 h 6 min 
Overall bit rate : 1 169 kb/s 
Movie name : Black Panther (2018) Hindi 
Encoded date : UTC 2018-04-21 05:37:34 
Writing application : mkvmerge v8.1.0 ('Psychedelic Postcard') 32bit 
Writing library : libebml v1.3.1 + libmatroska v1.4.2 

Video 
ID : 1 
Format : AVC 
Format/Info : Advanced Video Codec 
Format profile : [email protected] 
Format settings, CABAC : Yes 
Format settings, RefFrames : 8 frames 
Codec ID : V_MPEG4/ISO/AVC 
Duration : 2 h 6 min 
Bit rate : 1 039 kb/s 
Width : 1 280 pixels 
Height : 480 pixels 
Display aspect ratio : 2.667 
Frame rate mode : Constant 
Frame rate : 25.000 FPS 
Color space : YUV 
Chroma subsampling : 4:2:0 
Bit depth : 8 bits 
Scan type : Progressive 
Bits/(Pixel*Frame) : 0.068 
Stream size : 942 MiB (89%) 
Writing library : x264 core 148 r2708 86b7198 
Default : Yes 
Forced : No 
Color range : Limited 
Color primaries : BT.709 
Transfer characteristics : BT.709 
Matrix coefficients : BT.709 

Audio 
ID : 2 
Format : AAC 
Format/Info : Advanced Audio Codec 
Format profile : LC 
Codec ID : A_AAC 
Duration : 2 h 6 min 
Bit rate : 128 kb/s 
Channel(s) : 2 channels 
Channel positions : Front: L R 
Sampling rate : 44.1 kHz 
Frame rate : 43.066 FPS (1024 SPF) 
Compression mode : Lossy 
Stream size : 116 MiB (11%) 
Language : Hindi 
Default : Yes 
Forced : Yes 

Screen Shoots 


>