Lajja (2016) Hindi Dubbed Movie HDRip x264 AAC

.
Download .Torrent Magnet
Torren Name: Lajja (2016) Hindi Dubbed Movie HDRip x264 AAC
Org Name: Lajja
File size: 852.52 MB
Categories: Hindi Dubbed Movies
Uploader: TodayPk.se
Seeders: 58 Leechers: 34 Downloaded: 193
Last scrape: 24 April 2018 04:21:55


ebff283becf5d0f55d55d198c11928ba.png



General 
Complete name : Lajja (2016) Hindi Dubbed Movie HDRip x264 AAC by Full4movies.mkv 
Format : Matroska 
Format version : Version 4 / Version 2 
File size : 853 MiB 
Duration : 2 h 17 min 
Overall bit rate : 866 kb/s 
Movie name : Lajja (2016) Hindi 
Encoded date : UTC 2018-04-21 05:39:04 
Writing application : mkvmerge v8.1.0 ('Psychedelic Postcard') 32bit 
Writing library : libebml v1.3.1 + libmatroska v1.4.2 

Video 
ID : 1 
Format : VP9 
Codec ID : V_VP9 
Duration : 2 h 17 min 
Bit rate : 720 kb/s 
Width : 1 280 pixels 
Height : 720 pixels 
Display aspect ratio : 16:9 
Frame rate mode : Constant 
Frame rate : 24.000 FPS 
Bits/(Pixel*Frame) : 0.033 
Stream size : 709 MiB (83%) 
Default : Yes 
Forced : No 

Audio 
ID : 2 
Format : Opus 
Codec ID : A_OPUS 
Duration : 2 h 17 min 
Bit rate : 143 kb/s 
Channel(s) : 2 channels 
Channel positions : Front: L R 
Sampling rate : 48.0 kHz 
Frame rate : 50.000 FPS (960 SPF) 
Compression mode : Lossy 
Stream size : 141 MiB (17%) 
Language : Hindi 
Default : Yes 
Forced : No 

Screen Shoots 


>