Mufti (2017) Hindi Dubbed Movie HDRip x264 AA

.
Download .Torrent Magnet
Torren Name: Mufti (2017) Hindi Dubbed Movie HDRip x264 AA
Org Name: Muft
File size: 676.56 MB
Categories: Hindi Dubbed Movies
Uploader: TodayPk.se
Seeders: 4 Leechers: 24 Downloaded: 6
Last scrape: 24 April 2018 03:27:49


ebff283becf5d0f55d55d198c11928ba.png



General 
Complete name : Mufti (2017) Hindi Dubbed Movie HDRip x264 AAC 
Format : Matroska 
Format version : Version 4 / Version 2 
File size : 677 MiB 
Duration : 2 h 24 min 
Overall bit rate : 656 kb/s 
Movie name : Mufti (2017) 
Encoded date : UTC 2018-04-22 12:31:43 
Writing application : mkvmerge v8.1.0 ('Psychedelic Postcard') 32bit 
Writing library : libebml v1.3.1 + libmatroska v1.4.2 

Video 
ID : 1 
Format : AVC 
Format/Info : Advanced Video Codec 
Format profile : [email protected] 
Format settings, CABAC : Yes 
Format settings, RefFrames : 4 frames 
Codec ID : V_MPEG4/ISO/AVC 
Duration : 2 h 24 min 
Bit rate : 589 kb/s 
Width : 640 pixels 
Height : 272 pixels 
Display aspect ratio : 2.35:1 
Frame rate mode : Constant 
Frame rate : 25.000 FPS 
Color space : YUV 
Chroma subsampling : 4:2:0 
Bit depth : 8 bits 
Scan type : Progressive 
Bits/(Pixel*Frame) : 0.135 
Stream size : 608 MiB (90%) 
Writing library : x264 core 148 r2744 b97ae06 
Language : English 
Default : Yes 
Forced : No 

Audio 
ID : 2 
Format : AAC 
Format/Info : Advanced Audio Codec 
Format profile : LC 
Codec ID : A_AAC 
Duration : 2 h 24 min 
Bit rate : 64.4 kb/s 
Channel(s) : 2 channels 
Channel positions : Front: L R 
Sampling rate : 44.1 kHz 
Frame rate : 43.066 FPS (1024 SPF) 
Compression mode : Lossy 
Delay relative to video : -23 ms 
Stream size : 66.5 MiB (10%) 
Language : Hindi 
Default : Yes 
Forced : No 

Screen Shoots 



>