Sabse Badhkar Hum 3 (2018) Hindi Dubbed Movie [Hindi (Clean)] HDRip x264 AAC

.
Download .Torrent Magnet
Torren Name: Sabse Badhkar Hum 3 (2018) Hindi Dubbed Movie [Hindi (Clean)] HDRip x264 AAC
Org Name: Sabse Badhkar Hum 3
File size: 1.4 GB
Categories: Hindi Dubbed Movies
Uploader: TodayPk.se
Seeders: 51 Leechers: 123 Downloaded: 36
Last scrape: 24 April 2018 03:26:21


ebff283becf5d0f55d55d198c11928ba.png



General 
Complete name : Sabse Badhkar Hum 3 (2018) Hindi Dubbed Movie [Hindi (Clean)] HDRip x264 AAC by Full4movies.mkv 
Format : Matroska 
Format version : Version 4 / Version 2 
File size : 1.40 GiB 
Duration : 2 h 18 min 
Overall bit rate : 1 452 kb/s 
Movie name : Sabse Badhkar Hum 3 (2018) Hindi 
Encoded date : UTC 2018-04-23 18:59:56 
Writing application : mkvmerge v8.1.0 ('Psychedelic Postcard') 32bit 
Writing library : libebml v1.3.1 + libmatroska v1.4.2 

Video 
ID : 1 
Format : AVC 
Format/Info : Advanced Video Codec 
Format profile : [email protected] 
Format settings, CABAC : Yes 
Format settings, RefFrames : 4 frames 
Codec ID : V_MPEG4/ISO/AVC 
Duration : 2 h 18 min 
Bit rate : 1 300 kb/s 
Width : 1 280 pixels 
Height : 544 pixels 
Display aspect ratio : 2.35:1 
Frame rate mode : Constant 
Frame rate : 24.000 FPS 
Color space : YUV 
Chroma subsampling : 4:2:0 
Bit depth : 8 bits 
Scan type : Progressive 
Bits/(Pixel*Frame) : 0.078 
Stream size : 1.25 GiB (89%) 
Writing library : x264 core 148 r2708 86b7198 
Default : Yes 
Forced : No 
Color range : Limited 
Color primaries : BT.709 
Transfer characteristics : BT.709 
Matrix coefficients : BT.709 

Audio 
ID : 2 
Format : AAC 
Format/Info : Advanced Audio Codec 
Format profile : LC 
Codec ID : A_AAC 
Duration : 2 h 18 min 
Bit rate : 160 kb/s 
Channel(s) : 2 channels 
Channel positions : Front: L R 
Sampling rate : 48.0 kHz 
Frame rate : 46.875 FPS (1024 SPF) 
Compression mode : Lossy 
Delay relative to video : -21 ms 
Stream size : 159 MiB (11%) 
Language : Hindi 
Default : Yes 
Forced : Yes 

Screen Shoots 



>