Secret In Their Eyes (2015) Hindi Dubbed Movie HDRip x264 AAC

.
Download .Torrent Magnet
Torren Name: Secret In Their Eyes (2015) Hindi Dubbed Movie HDRip x264 AAC
Org Name: Secret In Their Eyes
File size: 982.1 MB
Categories: Hindi Dubbed Movies
Uploader: eztv
Seeders: 22 Leechers: 53 Downloaded: 36
Last scrape: 21 April 2018 04:05:49


ebff283becf5d0f55d55d198c11928ba.png



General 
Complete name : Secret In Their Eyes (2015) Hindi Dubbed Movie HDRip x264 AAC by Full4movies.mkv 
Format : Matroska 
Format version : Version 4 / Version 2 
File size : 982 MiB 
Duration : 1 h 51 min 
Overall bit rate : 1 230 kb/s 
Movie name : Secret In Their Eyes (2015) Hindi 
Encoded date : UTC 2018-04-20 09:32:29 
Writing application : mkvmerge v8.1.0 ('Psychedelic Postcard') 32bit 
Writing library : libebml v1.3.1 + libmatroska v1.4.2 
Cover : Yes 
Attachments : Cover.jpg 

Video 
ID : 1 
Format : AVC 
Format/Info : Advanced Video Codec 
Format profile : [email protected] 
Format settings, CABAC : Yes 
Format settings, RefFrames : 4 frames 
Codec ID : V_MPEG4/ISO/AVC 
Duration : 1 h 51 min 
Bit rate : 843 kb/s 
Width : 1 280 pixels 
Height : 536 pixels 
Display aspect ratio : 2.40:1 
Frame rate mode : Constant 
Frame rate : 23.976 (24000/1001) FPS 
Color space : YUV 
Chroma subsampling : 4:2:0 
Bit depth : 8 bits 
Scan type : Progressive 
Bits/(Pixel*Frame) : 0.051 
Stream size : 674 MiB (69%) 
Writing library : x264 core 148 r2638 7599210 
Language : English 
Default : Yes 
Forced : No 

Audio 
ID : 2 
Format : AC-3 
Format/Info : Audio Coding 3 
Mode : Dolby Digital 
Format settings, Endianness : Big 
Codec ID : A_AC3 
Duration : 1 h 51 min 
Bit rate mode : Constant 
Bit rate : 384 kb/s 
Channel(s) : 2 channels 
Channel positions : Front: L R 
Sampling rate : 48.0 kHz 
Frame rate : 31.250 FPS (1536 SPF) 
Bit depth : 16 bits 
Compression mode : Lossy 
Stream size : 307 MiB (31%) 
Language : Hindi 
Service kind : Complete Main 
Default : Yes 
Forced : Yes 

Text 
ID : 3 
Format : UTF-8 
Codec ID : S_TEXT/UTF8 
Codec ID/Info : UTF-8 Plain Text 
Duration : 1 h 47 min 
Bit rate : 59 b/s 
Count of elements : 1604 
Stream size : 46.5 KiB (0%) 
Language : English 
Default : Yes 
Forced : Yes 

Screen Shoots 


>