Lakshmi Bomb (2018) Full Hindi Dubbed Movie HDRip x264 AAC

.
Download .Torrent Magnet
Torren Name: Lakshmi Bomb (2018) Full Hindi Dubbed Movie HDRip x264 AAC
Org Name: Lakshmi Bomb
File size: 1.08 GB
Categories: Hindi Dubbed Movies
Uploader: eztv
Seeders: 59 Leechers: 156 Downloaded: 34
Last scrape: 21 April 2018 03:47:22


ebff283becf5d0f55d55d198c11928ba.png



General 
Complete name : Lakshmi Bomb (2018) Full Hindi Dubbed Movie HDRip x264 AAC by Full4movies.mkv 
Format : Matroska 
Format version : Version 4 / Version 2 
File size : 1.08 GiB 
Duration : 1 h 33 min 
Overall bit rate : 1 654 kb/s 
Movie name : Lakshmi Bomb (2018) Hindi 
Encoded date : UTC 2018-04-20 19:13:37 
Writing application : mkvmerge v8.1.0 ('Psychedelic Postcard') 32bit 
Writing library : libebml v1.3.1 + libmatroska v1.4.2 

Video 
ID : 1 
Format : AVC 
Format/Info : Advanced Video Codec 
Format profile : [email protected] 
Format settings, CABAC : Yes 
Format settings, RefFrames : 3 frames 
Codec ID : V_MPEG4/ISO/AVC 
Duration : 1 h 33 min 
Bit rate : 1 526 kb/s 
Width : 1 280 pixels 
Height : 720 pixels 
Display aspect ratio : 16:9 
Frame rate mode : Constant 
Frame rate : 25.000 FPS 
Color space : YUV 
Chroma subsampling : 4:2:0 
Bit depth : 8 bits 
Scan type : Progressive 
Bits/(Pixel*Frame) : 0.066 
Stream size : 1.00 GiB (92%) 
Default : Yes 
Forced : No 
Color range : Limited 
Color primaries : BT.709 
Transfer characteristics : BT.709 
Matrix coefficients : BT.709 

Audio 
ID : 2 
Format : AAC 
Format/Info : Advanced Audio Codec 
Format profile : LC 
Codec ID : A_AAC 
Duration : 1 h 33 min 
Bit rate : 126 kb/s 
Channel(s) : 2 channels 
Channel positions : Front: L R 
Sampling rate : 44.1 kHz 
Frame rate : 43.066 FPS (1024 SPF) 
Compression mode : Lossy 
Stream size : 84.4 MiB (8%) 
Language : Hindi 
Default : Yes 
Forced : No 

Screen Shoots 



>