Party 1984 Hindi 720p WEBRip x264

.
Download .Torrent Magnet
Torren Name: Party 1984 Hindi 720p WEBRip x264
Org Name: Party 1984
File size: 884.56 MB
Categories: Hindi
Uploader: TodayPk.se
Seeders: 52 Leechers: 131 Downloaded: 102
Last scrape: 10 April 2018 11:20:30


ebff283becf5d0f55d55d198c11928ba.png




General 
Format : Matroska 
Format version : Version 4 / Version 2 
File size : 885 MiB 
Duration : 1 h 52 min 
Overall bit rate : 1 098 kb/s 

Video 
ID : 1 
Format : AVC 
Format/Info : Advanced Video Codec 
Format profile : [email protected] 
Format settings : CABAC / 4 Ref Frames 
Format settings, CABAC : Yes 
Format settings, RefFrames : 4 frames 
Codec ID : V_MPEG4/ISO/AVC 
Duration : 1 h 52 min 
Bit rate : 1 000 kb/s 
Width : 1 280 pixels 
Height : 914 pixels 
Display aspect ratio : 1.400 
Frame rate mode : Constant 
Frame rate : 25.000 FPS 
Color space : YUV 
Chroma subsampling : 4:2:0 
Bit depth : 8 bits 
Scan type : Progressive 
Bits/(Pixel*Frame) : 0.034 
Stream size : 804 MiB (91%) 
Writing library : x264 core 155 r2893 b00bcaf 
Default : Yes 
Forced : No 

Audio 
ID : 2 
Format : AAC 
Format/Info : Advanced Audio Codec 
Format profile : LC 
Codec ID : A_AAC-2 
Duration : 1 h 52 min 
Bit rate : 96.0 kb/s 
Channel(s) : 2 channels 
Channel positions : Front: L R 
Sampling rate : 48.0 kHz 
Frame rate : 46.875 FPS (1024 SPF) 
Compression mode : Lossy 
Delay relative to video : 21 ms 
Stream size : 78.6 MiB (9%) 
Default : Yes 
Forced : No 














>