Frog Kingdom 2013 720p BRRip x264 Dual Audio [Hindi 2.0 - English 2.0]

.
Download .Torrent Magnet
Torren Name: Frog Kingdom 2013 720p BRRip x264 Dual Audio [Hindi 2.0 - English 2.0]
Org Name: Frog Kingdom
File size: 884.49 MB
Categories: Hindi
Uploader: TodayPk.se
Seeders: 206 Leechers: 317 Downloaded: 230
Last scrape: 10 April 2018 11:18:37


ebff283becf5d0f55d55d198c11928ba.png




General 
Format : Matroska 
Format version : Version 4 / Version 2 
File size : 884 MiB 
Duration : 1 h 27 min 
Overall bit rate : 1 419 kb/s 

Video 
ID : 1 
Format : AVC 
Format/Info : Advanced Video Codec 
Format profile : [email protected] 
Format settings : CABAC / 4 Ref Frames 
Format settings, CABAC : Yes 
Format settings, RefFrames : 4 frames 
Codec ID : V_MPEG4/ISO/AVC 
Duration : 1 h 27 min 
Bit rate : 1 200 kb/s 
Width : 1 280 pixels 
Height : 534 pixels 
Display aspect ratio : 2.40:1 
Frame rate mode : Constant 
Frame rate : 23.976 (24000/1001) FPS 
Color space : YUV 
Chroma subsampling : 4:2:0 
Bit depth : 8 bits 
Scan type : Progressive 
Bits/(Pixel*Frame) : 0.073 
Stream size : 743 MiB (84%) 
Writing library : x264 core 155 r2893 b00bcaf 
Default : Yes 
Forced : No 

Audio #1 
ID : 2 
Format : AAC 
Format/Info : Advanced Audio Codec 
Format profile : LC 
Codec ID : A_AAC-2 
Duration : 1 h 27 min 
Bit rate : 128 kb/s 
Channel(s) : 2 channels 
Channel positions : Front: L R 
Sampling rate : 48.0 kHz 
Frame rate : 46.875 FPS (1024 SPF) 
Compression mode : Lossy 
Stream size : 79.8 MiB (9%) 
Language : Hindi 
Default : Yes 
Forced : No 

Audio #2 
ID : 3 
Format : AAC 
Format/Info : Advanced Audio Codec 
Format profile : LC 
Codec ID : A_AAC-2 
Duration : 1 h 27 min 
Bit rate : 96.0 kb/s 
Channel(s) : 2 channels 
Channel positions : Front: L R 
Sampling rate : 44.1 kHz 
Frame rate : 43.066 FPS (1024 SPF) 
Compression mode : Lossy 
Stream size : 59.9 MiB (7%) 
Language : English 
Default : No 
Forced : No 

Menu 
00:00:00.000 : en:00:00:00.000 
00:08:50.697 : en:00:08:50.697 
00:14:51.057 : en:00:14:51.057 
00:22:37.273 : en:00:22:37.189 
00:29:37.442 : en:00:29:37.442 
00:38:11.164 : en:00:38:11.164 
00:46:39.755 : en:00:46:39.755 
00:54:02.072 : en:00:54:02.072 
01:03:13.873 : en:01:03:13.873 
01:08:15.592 : en:01:08:15.466 
01:14:36.597 : en:01:14:36.597 
01:23:38.639 : en:01:23:38.513 















>