Flightplan 2005 x264 720p Esub BluRay Dual Audio English Hindi GOPISAHI

.
Download .Torrent Magnet
Torren Name: Flightplan 2005 x264 720p Esub BluRay Dual Audio English Hindi GOPISAHI
Org Name: Flightplan
File size: 540.91 MB
Categories: Movies
Uploader: TodayPk.se
Seeders: 145 Leechers: 148 Downloaded: 696
Last scrape: 9 April 2018 06:27:26


ebff283becf5d0f55d55d198c11928ba.png


Format : Matroska 
Format version : Version 4 / Version 2 
File size : 541 MiB 
Duration : 1 h 38 min 
Overall bit rate : 771 kb/s 
Movie name : Flightplan 2005 GOPISAHI 

Video 
Format : AVC 
Codec ID : V_MPEG4/ISO/AVC 
Duration : 1 h 38 min 
Bit rate : 600 kb/s 
Width : 1 280 pixels 
Height : 544 pixels 
Display aspect ratio : 2.35:1 
Frame rate mode : Constant 
Frame rate : 23.976 (24000/1001) FPS 
Stream size : 421 MiB (78%) 
Title : GOPISAHI 
Writing library : x264 core 148 r2708 86b7198 

Audio #1 
Format : AAC 
Duration : 1 h 38 min 
Bit rate : 83.1 kb/s 
Channel(s) : 6 channels 
Channel positions : Front: L C R, Side: L R, LFE 
Sampling rate : 44.1 kHz 
Frame rate : 43.066 FPS (1024 SPF) 
Compression mode : Lossy 
Stream size : 58.3 MiB (11%) 
Title : GOPISAHI 
Language : English 

Audio #2 
Format : AAC 
Duration : 1 h 38 min 
Bit rate : 85.4 kb/s 
Channel(s) : 6 channels 
Channel positions : Front: L C R, Side: L R, LFE 
Sampling rate : 44.1 kHz 
Frame rate : 43.066 FPS (1024 SPF) 
Compression mode : Lossy 
Stream size : 59.9 MiB (11%) 
Title : GOPISAHI 
Language : Hindi 

Text 
Language : English 



>