The Shape of Water (2017) Hindi Dubbed Movie HDRip x264 AC3 by Full4movies.mp4

.
Download .Torrent Magnet
Torren Name: The Shape of Water (2017) Hindi Dubbed Movie HDRip x264 AC3 by Full4movies.mp4
Org Name: The Shape of Water
File size: 1.11 GB
Categories: Hindi
Uploader: TodayPk.se
Seeders: 46 Leechers: 39 Downloaded: 123
Last scrape: 8 April 2018 05:37:09


ebff283becf5d0f55d55d198c11928ba.png



General 
Complete name                  : The Shape of Water (2017) Hindi Dubbed Movie HDRip x264 AC3 by Full4movies.mp4 
Format                         : MPEG-4 
Format profile                 : Base Media 
Codec ID                       : isom (isom/iso2/avc1/mp41) 
File size                      : 1.11 GiB 
Duration                       : 2 h 3 min 
Overall bit rate               : 1 285 kb/s 
Movie name                     : The Shape of Water (2017) Hindi 
Writing application            : Lavf57.83.100 

Video 
ID                             : 1 
Format                         : AVC 
Format/Info                    : Advanced Video Codec 
Format profile                 : [email protected] 
Format settings, CABAC         : Yes 
Format settings, RefFrames     : 4 frames 
Codec ID                       : avc1 
Codec ID/Info                  : Advanced Video Coding 
Duration                       : 2 h 3 min 
Bit rate                       : 1 150 kb/s 
Width                          : 1 280 pixels 
Height                         : 682 pixels 
Display aspect ratio           : 1.85:1 
Original display aspect ratio  : 1.85:1 
Frame rate mode                : Variable 
Frame rate                     : 23.976 FPS 
Minimum frame rate             : 23.564 FPS 
Maximum frame rate             : 24.390 FPS 
Color space                    : YUV 
Chroma subsampling             : 4:2:0 
Bit depth                      : 8 bits 
Scan type                      : Progressive 
Bits/(Pixel*Frame)             : 0.055 
Stream size                    : 1 014 MiB (89%) 
Writing library                : x264 core 155 
Language                       : English 

Audio 
ID                             : 2 
Format                         : AAC 
Format/Info                    : Advanced Audio Codec 
Format profile                 : LC 
Codec ID                       : 40 
Duration                       : 2 h 3 min 
Duration_LastFrame             : -11 ms 
Bit rate mode                  : Constant 
Bit rate                       : 129 kb/s 
Channel(s)                     : 2 channels 
Channel positions              : Front: L R 
Sampling rate                  : 48.0 kHz 
Frame rate                     : 46.875 FPS (1024 SPF) 
Compression mode               : Lossy 
Stream size                    : 114 MiB (10%) 
Language                       : Hindi 
Default                        : Yes 
Alternate group                : 1 

Screen Shoots 


>