1921 2018 2017 HD 720p Hindi GOPISAHI

.
Download .Torrent Magnet
Torren Name: 1921 2018 2017 HD 720p Hindi GOPISAHI
Org Name: 1921
File size: 596.42 MB
Categories: Hindi
Uploader: TodayPk.se
Seeders: 4 Leechers: 125 Downloaded: 6
Last scrape: 8 April 2018 05:30:17


ebff283becf5d0f55d55d198c11928ba.png


Format                         : Matroska 
Format version                 : Version 4 / Version 2 
File size                      : 596 MiB 
Duration                       : 2 h 21 min 
Overall bit rate               : 591 kb/s 
Movie name                     : 1921 2018 GOPISAHI 

Video 
Format                         : AVC 
Codec ID                       : V_MPEG4/ISO/AVC 
Duration                       : 2 h 21 min 
Bit rate                       : 500 kb/s 
Width                          : 1 280 pixels 
Height                         : 540 pixels 
Display aspect ratio           : 2.40:1 
Frame rate mode                : Constant 
Frame rate                     : 25.000 FPS 
Stream size                    : 504 MiB (85%) 
Title                          : GOPISAHI 
Writing library                : x264 core 155 r2893 b00bcaf 

Audio 
Format                         : AAC 
Duration                       : 2 h 21 min 
Bit rate                       : 89.1 kb/s 
Channel(s)                     : 6 channels 
Channel positions              : Front: L C R, Side: L R, LFE 
Sampling rate                  : 44.1 kHz 
Frame rate                     : 43.066 FPS (1024 SPF) 
Compression mode               : Lossy 
Stream size                    : 89.9 MiB (15%) 
Title                          : GOPISAHI 
Language                       : Hindi 



>