Erin Brockovich 2000 720p x264 Esub BluRay Dual Audio English Hindi GOPISAHI

.
Download .Torrent Magnet
Torren Name: Erin Brockovich 2000 720p x264 Esub BluRay Dual Audio English Hindi GOPISAHI
Org Name: Erin Brockovich
File size: 613.54 MB
Categories: Movies
Uploader: TodayPk.se
Seeders: 13 Leechers: 9 Downloaded: 432
Last scrape: 7 April 2018 06:45:02


ebff283becf5d0f55d55d198c11928ba.png


Format : Matroska 
Format version : Version 4 / Version 2 
File size : 614 MiB 
Duration : 2 h 7 min 
Overall bit rate : 674 kb/s 
Movie name : Erin Brockovich 2000 GOPISAHI 

Video 
Format : AVC 
Codec ID : V_MPEG4/ISO/AVC 
Duration : 2 h 7 min 
Bit rate : 500 kb/s 
Width : 1 280 pixels 
Height : 688 pixels 
Display aspect ratio : 1.85:1 
Frame rate mode : Constant 
Frame rate : 23.976 (24000/1001) FPS 
Color space : YUV 
Stream size : 455 MiB (74%) 
Title : GOPISAHI 
Writing library : x264 core 155 r2893 b00bcaf 

Audio #1 
Format : AAC 
Duration : 2 h 7 min 
Bit rate : 81.0 kb/s 
Channel(s) : 6 channels 
Channel positions : Front: L C R, Side: L R, LFE 
Sampling rate : 44.1 kHz 
Frame rate : 43.066 FPS (1024 SPF) 
Compression mode : Lossy 
Stream size : 73.7 MiB (12%) 
Title : GOPISAHI 
Language : English 

Audio #2 
Format : AAC 
Duration : 2 h 7 min 
Bit rate : 90.5 kb/s 
Channel(s) : 6 channels 
Channel positions : Front: L C R, Side: L R, LFE 
Sampling rate : 44.1 kHz 
Frame rate : 43.066 FPS (1024 SPF) 
Compression mode : Lossy 
Stream size : 82.3 MiB (13%) 
Title : GOPISAHI 
Language : Hindi 

Text 
Language : English 



>