The Hurricane Heist (2018) 720p HC-HDRip - x264 - Dual - [Hindi + Eng]

.
Download .Torrent Magnet
Torren Name: The Hurricane Heist (2018) 720p HC-HDRip - x264 - Dual - [Hindi + Eng]
Org Name: The Hurricane Heist
File size: 1.26 GB
Categories: Movies
Uploader: TodayPk.se
Seeders: 94 Leechers: 46 Downloaded: 2171
Last scrape: 7 April 2018 06:19:21


ebff283becf5d0f55d55d198c11928ba.png

http://movcr.com 



Video 
ID : 1 
Format : AVC 
Format/Info : Advanced Video Codec 
Format profile : [email protected] 
Format settings, CABAC : Yes 
Format settings, RefFrames : 4 frames 
Codec ID : V_MPEG4/ISO/AVC 
Duration : 1 h 42 min 
Bit rate : 1 502 kb/s 
Width : 1 280 pixels 
Height : 536 pixels 
Display aspect ratio : 2.40:1 
Frame rate mode : Constant 
Frame rate : 29.970 FPS 
Color space : YUV 
Chroma subsampling : 4:2:0 
Bit depth : 8 bits 
Scan type : Progressive 
Bits/(Pixel*Frame) : 0.073 
Stream size : 1.08 GiB (85%) 
Title : www.MovCr.com 
Writing library : x264 core 112 
Encoding settings : cabac=1 / ref=2 / deblock=1:0:0 / analyse=0x1:0x111 / me=hex / subme=6 / psy=1 / psy_rd=1.00:0.00 / mixed_ref=0 / me_range=16 / chroma_me=1 / trellis=0 / 8x8dct=0 / cqm=0 / deadzone=21,11 / fast_pskip=1 / chroma_qp_offset=-2 / threads=12 / sliced_threads=0 / nr=0 / decimate=1 / interlaced=0 / constrained_intra=0 / bframes=2 / b_pyramid=2 / b_adapt=1 / b_bias=0 / direct=1 / weightb=0 / open_gop=0 / weightp=2 / keyint=300 / keyint_min=29 / scenecut=40 / intra_refresh=0 / rc_lookahead=40 / rc=abr / mbtree=1 / bitrate=1502 / ratetol=1.0 / qcomp=0.60 / qpmin=3 / qpmax=51 / qpstep=4 / ip_ratio=1.40 / aq=1:1.00 
Language : English 
Default : Yes 
Forced : No 
Color range : Limited 
Color primaries : BT.709 
Transfer characteristics : BT.709 
Matrix coefficients : BT.709 

Audio #1 
ID : 2 
Format : AAC 
Format/Info : Advanced Audio Codec 
Format profile : LC 
Codec ID : A_AAC 
Duration : 1 h 42 min 
Bit rate : 126 kb/s 
Channel(s) : 2 channels 
Channel positions : Front: L R 
Sampling rate : 44.1 kHz 
Frame rate : 43.066 FPS (1024 SPF) 
Compression mode : Lossy 
Stream size : 92.2 MiB (7%) 
Title : www.MovCr.com 
Language : Hindi 
Default : Yes 
Forced : No 

Audio #2 
ID : 3 
Format : AAC 
Format/Info : Advanced Audio Codec 
Format profile : LC 
Codec ID : A_AAC 
Duration : 1 h 42 min 
Bit rate : 128 kb/s 
Channel(s) : 2 channels 
Channel positions : Front: L R 
Sampling rate : 48.0 kHz 
Frame rate : 46.875 FPS (1024 SPF) 
Compression mode : Lossy 
Stream size : 94.0 MiB (7%) 
Title : www.MovCr.com 
Language : English 
Default : No 
Forced : No 



>