The Hurricane Heist (2018) 720p HDRip-[Dual Audio]-[Hindi (Clean) + Eng] - 850MB - MovCr

.
Download .Torrent Magnet
Torren Name: The Hurricane Heist (2018) 720p HDRip-[Dual Audio]-[Hindi (Clean) + Eng] - 850MB - MovCr
Org Name: The Hurricane Heist
File size: 889.99 MB
Categories: Movies
Uploader: TodayPk.se
Seeders: 356 Leechers: 2131 Downloaded: 11728
Last scrape: 7 April 2018 06:17:40


ebff283becf5d0f55d55d198c11928ba.png




General 
Complete name : [www.MRbuZ.com] The Hurricane Heist (2018) 720p HDRip-[Dual Audio]-[Hindi (Clean) + Eng] - 850MB - MovCrwww.MRbuZ.com - The Hurricane Heist (2018) HDRip - 720p - [Hindi (Clear) + Eng] - 850MB - MovCr.mkv 
Format : Matroska 
Format version : Version 4 / Version 2 
File size : 874 MiB 
Duration : 1 h 42 min 
Overall bit rate mode : Variable 
Overall bit rate : 1 190 kb/s 
Movie name : MRbuZ.com 
Encoded date : UTC 2018-04-03 15:21:00 
Writing application : mkvmerge v9.5.0 ('Quiet Fire') 64bit 
Writing library : libebml v1.3.4 + libmatroska v1.4.5 

Video 
ID : 1 
Format : AVC 
Format/Info : Advanced Video Codec 
Format profile : [email protected] 
Format settings : CABAC / 8 Ref Frames 
Format settings, CABAC : Yes 
Format settings, RefFrames : 8 frames 
Codec ID : V_MPEG4/ISO/AVC 
Duration : 1 h 42 min 
Bit rate : 1 027 kb/s 
Width : 1 280 pixels 
Height : 536 pixels 
Display aspect ratio : 2.40:1 
Frame rate mode : Constant 
Frame rate : 29.970 (30000/1001) FPS 
Color space : YUV 
Chroma subsampling : 4:2:0 
Bit depth : 8 bits 
Scan type : Progressive 
Bits/(Pixel*Frame) : 0.050 
Stream size : 754 MiB (86%) 
Title : MRbuZ.com 
Writing library : x264 core 148 r2708 86b7198 
Encoding settings : cabac=1 / ref=8 / deblock=1:0:0 / analyse=0x3:0x133 / me=umh / subme=9 / psy=1 / psy_rd=1.00:0.00 / mixed_ref=1 / me_range=16 / chroma_me=1 / trellis=2 / 8x8dct=1 / cqm=0 / deadzone=21,11 / fast_pskip=1 / chroma_qp_offset=-2 / threads=17 / lookahead_threads=1 / sliced_threads=0 / nr=0 / decimate=1 / interlaced=0 / bluray_compat=0 / constrained_intra=0 / bframes=3 / b_pyramid=2 / b_adapt=2 / b_bias=0 / direct=3 / weightb=1 / open_gop=0 / weightp=2 / keyint=300 / keyint_min=30 / scenecut=40 / intra_refresh=0 / rc_lookahead=60 / rc=2pass / mbtree=1 / bitrate=1027 / ratetol=1.0 / qcomp=0.60 / qpmin=0 / qpmax=69 / qpstep=4 / cplxblur=20.0 / qblur=0.5 / vbv_maxrate=62500 / vbv_bufsize=78125 / nal_hrd=none / filler=0 / ip_ratio=1.40 / aq=1:1.00 
Language : English 
Default : Yes 
Forced : No 
Color range : Limited 
Color primaries : BT.709 
Transfer characteristics : BT.709 
Matrix coefficients : BT.709 

Audio #1 
ID : 2 
Format : MPEG Audio 
Format version : Version 1 
Format profile : Layer 3 
Format settings : Joint stereo / MS Stereo 
Codec ID : A_MPEG/L3 
Codec ID/Hint : MP3 
Duration : 1 h 42 min 
Bit rate mode : Variable 
Bit rate : 96.0 kb/s 
Channel(s) : 2 channels 
Sampling rate : 44.1 kHz 
Frame rate : 38.281 FPS (1152 SPF) 
Compression mode : Lossy 
Stream size : 70.8 MiB (8%) 
Title : MRbuZ.com 
Writing library : LAME3.99r 
Encoding settings : -m j -V 4 -q 3 -lowpass 15.1 --abr 96 
Language : Hindi 
Default : Yes 
Forced : No 

Audio #2 
ID : 3 
Format : AAC 
Format/Info : Advanced Audio Codec 
Format profile : HE-AAC / LC 
Format settings : Explicit 
Codec ID : A_AAC-2 
Duration : 1 h 42 min 
Bit rate : 64.0 kb/s 
Channel(s) : 2 channels 
Channel positions : Front: L R 
Sampling rate : 48.0 kHz / 24.0 kHz 
Frame rate : 23.438 FPS (1024 SPF) 
Compression mode : Lossy 
Delay relative to video : 31 ms 
Stream size : 47.0 MiB (5%) 
Title : MRbuZ.com 
Language : English 
Default : No 
Forced : No 








>