Super King No. 1 (Mister. 420) (2018) Hindi Dubbed 720p x264 AAC

.
Download .Torrent Magnet
Torren Name: Super King No. 1 (Mister. 420) (2018) Hindi Dubbed 720p x264 AAC
Org Name: Super King No. 1
File size: 1.24 GB
Categories: Hindi Dubbed Movies
Uploader: TodayPk.se
Seeders: 293 Leechers: 175 Downloaded: 1411
Last scrape: 3 April 2018 04:32:38


ebff283becf5d0f55d55d198c11928ba.png

Super King No. 1 (Mister. 420) (2018) Hindi Dubbed 720p x264 AAC [MovCr] 


General 
Unique ID : 244791650618106741451036623818909195287 (0xB82928318DE845219B8662C1D8B29C17) 
Complete name : www.movcr.com - Super King No. 1 (Mister. 420) (2018) Hindi Dubbed 720p x264 AAC [MovCr].mkv 
Format : Matroska 
Format version : Version 4 / Version 2 
File size : 1.24 GiB 
Duration : 1 h 36 min 
Overall bit rate : 1 840 kb/s 
Movie name : www.movcr.com 
Encoded date : UTC 2018-04-01 04:28:14 
Writing application : mkvmerge v9.5.0 ('Quiet Fire') 64bit 
Writing library : libebml v1.3.4 + libmatroska v1.4.5 

Video 
ID : 1 
Format : AVC 
Format/Info : Advanced Video Codec 
Format profile : [email protected] 
Format settings : CABAC / 3 Ref Frames 
Format settings, CABAC : Yes 
Format settings, RefFrames : 3 frames 
Codec ID : V_MPEG4/ISO/AVC 
Duration : 1 h 36 min 
Bit rate : 1 712 kb/s 
Width : 1 280 pixels 
Height : 720 pixels 
Display aspect ratio : 16:9 
Frame rate mode : Constant 
Frame rate : 25.000 FPS 
Color space : YUV 
Chroma subsampling : 4:2:0 
Bit depth : 8 bits 
Scan type : Progressive 
Bits/(Pixel*Frame) : 0.074 
Stream size : 1.15 GiB (93%) 
Title : www.movcr.com 
Default : Yes 
Forced : No 
Color range : Limited 
Color primaries : BT.709 
Transfer characteristics : BT.709 
Matrix coefficients : BT.709 

Audio 
ID : 2 
Format : AAC 
Format/Info : Advanced Audio Codec 
Format profile : LC 
Codec ID : A_AAC-2 
Duration : 1 h 36 min 
Bit rate : 126 kb/s 
Channel(s) : 2 channels 
Channel positions : Front: L R 
Sampling rate : 44.1 kHz 
Frame rate : 43.066 FPS (1024 SPF) 
Compression mode : Lossy 
Stream size : 86.7 MiB (7%) 
Title : www.movcr.com 
Language : Hindi 
Default : Yes 
Forced : No 











Bi


>