Dum Man Of Power (Tarak) (2017) Hindi Dubbed 720p HDRip ESubs x264 AAC

.
Download .Torrent Magnet
Torren Name: Dum Man Of Power (Tarak) (2017) Hindi Dubbed 720p HDRip ESubs x264 AAC
Org Name: Dum Man Of Power (Tarak)
File size: 898.15 MB
Categories: Hindi Dubbed Movies
Uploader: TodayPk.se
Seeders: 135 Leechers: 72 Downloaded: 892
Last scrape: 3 April 2018 04:16:30


ebff283becf5d0f55d55d198c11928ba.png



General 
Complete name : www.movcr.com-Dum Man Of Power (Tarak) (2017) Hindi Dubbed 720p HDRip ESubs x264 AAC [Movcr].mkv 
Format : Matroska 
Format version : Version 2 
File size : 898 MiB 
Duration : 2 h 1 min 
Overall bit rate : 1 030 kb/s 
Encoded date : UTC 2018-04-01 10:06:19 
Writing application : mkvmerge v21.0.0 ('Tardigrades Will Inherit The Earth') 64-bit 
Writing library : libebml v1.3.5 + libmatroska v1.4.8 

Video 
ID : 1 
Format : AVC 
Format/Info : Advanced Video Codec 
Format profile : [email protected] 
Format settings : CABAC / 4 Ref Frames 
Format settings, CABAC : Yes 
Format settings, RefFrames : 4 frames 
Codec ID : V_MPEG4/ISO/AVC 
Duration : 2 h 1 min 
Bit rate : 644 kb/s 
Width : 1 280 pixels 
Height : 544 pixels 
Display aspect ratio : 2.35:1 
Frame rate mode : Constant 
Frame rate : 25.000 FPS 
Color space : YUV 
Chroma subsampling : 4:2:0 
Bit depth : 8 bits 
Scan type : Progressive 
Bits/(Pixel*Frame) : 0.037 
Stream size : 562 MiB (63%) 
Title : www.movcr.com / ISO Media file produced by Google Inc. Created on: 03/30/2018. 
Writing library : x264 core 155 r2901 7d0ff22 
Encoding settings : cabac=1 / ref=3 / deblock=1:0:0 / analyse=0x3:0x113 / me=hex / subme=7 / psy=1 / psy_rd=1.00:0.00 / mixed_ref=1 / me_range=16 / chroma_me=1 / trellis=1 / 8x8dct=1 / cqm=0 / deadzone=21,11 / fast_pskip=1 / chroma_qp_offset=-2 / threads=12 / lookahead_threads=2 / sliced_threads=0 / nr=0 / decimate=1 / interlaced=0 / bluray_compat=0 / constrained_intra=0 / bframes=3 / b_pyramid=2 / b_adapt=1 / b_bias=0 / direct=1 / weightb=1 / open_gop=0 / weightp=2 / keyint=250 / keyint_min=25 / scenecut=40 / intra_refresh=0 / rc_lookahead=40 / rc=2pass / mbtree=1 / bitrate=644 / ratetol=1.0 / qcomp=0.60 / qpmin=0 / qpmax=69 / qpstep=4 / cplxblur=20.0 / qblur=0.5 / ip_ratio=1.40 / aq=1:1.00 
Default : Yes 
Forced : No 

Audio 
ID : 2 
Format : AC-3 
Format/Info : Audio Coding 3 
Codec ID : A_AC3 
Duration : 2 h 1 min 
Bit rate mode : Constant 
Bit rate : 384 kb/s 
Channel(s) : 2 channels 
Channel positions : Front: L R 
Sampling rate : 44.1 kHz 
Frame rate : 28.711 FPS (1536 SPF) 
Bit depth : 16 bits 
Compression mode : Lossy 
Stream size : 335 MiB (37%) 
Title : www.movcr.com / ISO Media file produced by Google Inc. Created on: 03/30/2018. 
Language : Hindi 
Service kind : Complete Main 
Default : Yes 
Forced : No 

Text 
ID : 3 
Format : UTF-8 
Codec ID : S_TEXT/UTF8 
Codec ID/Info : UTF-8 Plain Text 
Duration : 2 s 0 ms 
Bit rate : 68 b/s 
Count of elements : 1 
Stream size : 17.0 Bytes (0%) 
Title : www.movcr.com 
Language : English 
Default : No 
Forced : No 












>