Doctor X 2012 Season 01 Episode 02 720p WEBRip x264 Hindi Dubbed Exclusive

.
Download .Torrent Magnet
Torren Name: Doctor X 2012 Season 01 Episode 02 720p WEBRip x264 Hindi Dubbed Exclusive
Org Name: Doctor X 2012 Season
File size: 565.8 MB
Categories: TV
Uploader: TodayPk.se
Seeders: 4 Leechers: 4 Downloaded: 196
Last scrape: 21 March 2018 04:59:58


ebff283becf5d0f55d55d198c11928ba.png




Doctor X 2012 Season 01 Episode 02 720p WEBRip x264 Hindi Dubbed Exclusive 




General 
Format : Matroska 
Format version : Version 4 / Version 2 
File size : 566 MiB 
Duration : 45 min 43 s 
Overall bit rate : 1 730 kb/s 

Video 
ID : 1 
Format : AVC 
Format/Info : Advanced Video Codec 
Format profile : [email protected] 
Format settings : CABAC / 4 Ref Frames 
Format settings, CABAC : Yes 
Format settings, RefFrames : 4 frames 
Codec ID : V_MPEG4/ISO/AVC 
Duration : 45 min 43 s 
Bit rate : 1 500 kb/s 
Width : 1 280 pixels 
Height : 720 pixels 
Display aspect ratio : 16:9 
Frame rate mode : Constant 
Frame rate : 29.970 (30000/1001) FPS 
Color space : YUV 
Chroma subsampling : 4:2:0 
Bit depth : 8 bits 
Scan type : Progressive 
Bits/(Pixel*Frame) : 0.054 
Stream size : 502 MiB (89%) 
Writing library : x264 core 148 r2708 86b7198 
Default : Yes 
Forced : No 

Audio 
ID : 2 
Format : AAC 
Format/Info : Advanced Audio Codec 
Format profile : LC 
Codec ID : A_AAC-2 
Duration : 45 min 43 s 
Bit rate : 192 kb/s 
Channel(s) : 2 channels 
Channel positions : Front: L R 
Sampling rate : 44.1 kHz 
Frame rate : 43.066 FPS (1024 SPF) 
Compression mode : Lossy 
Stream size : 62.8 MiB (11%) 
Language : Hindi 
Default : Yes 
Forced : No 












>