Go-Chan Moco and Friends From Peculiar Animal Forest 2017 720p WEB-DL x264 Hindi Dubbed

.
Download .Torrent Magnet
Torren Name: Go-Chan Moco and Friends From Peculiar Animal Forest 2017 720p WEB-DL x264 Hindi Dubbed
Org Name: Go-Chan Moco and Friends From Peculiar Animal Forest
File size: 615.4 MB
Categories: Hindi Dubbed Movies
Uploader: TodayPk.se
Seeders: 30 Leechers: 10 Downloaded: 570
Last scrape: 21 March 2018 04:08:48


ebff283becf5d0f55d55d198c11928ba.png


General 
Format                                   : Matroska 
Format version                           : Version 4 / Version 2 
File size                                : 615 MiB 
Duration                                 : 53 min 44 s 
Overall bit rate                         : 1 601 kb/s 

Video 
ID                                       : 1 
Format                                   : AVC 
Format/Info                              : Advanced Video Codec 
Format profile                           : [email protected] 
Format settings                          : CABAC / 4 Ref Frames 
Format settings, CABAC                   : Yes 
Format settings, RefFrames               : 4 frames 
Codec ID                                 : V_MPEG4/ISO/AVC 
Duration                                 : 53 min 44 s 
Bit rate                                 : 1 400 kb/s 
Width                                    : 1 280 pixels 
Height                                   : 720 pixels 
Display aspect ratio                     : 16:9 
Frame rate mode                          : Constant 
Frame rate                               : 30.000 FPS 
Color space                              : YUV 
Chroma subsampling                       : 4:2:0 
Bit depth                                : 8 bits 
Scan type                                : Progressive 
Bits/(Pixel*Frame)                       : 0.051 
Stream size                              : 541 MiB (88%) 
Writing library                          : x264 core 148 r2708 86b7198 
Default                                  : Yes 
Forced                                   : No 

Audio 
ID                                       : 2 
Format                                   : AAC 
Format/Info                              : Advanced Audio Codec 
Format profile                           : LC 
Codec ID                                 : A_AAC-2 
Duration                                 : 53 min 44 s 
Bit rate                                 : 192 kb/s 
Channel(s)                               : 2 channels 
Channel positions                        : Front: L R 
Sampling rate                            : 44.1 kHz 
Frame rate                               : 43.066 FPS (1024 SPF) 
Compression mode                         : Lossy 
Stream size                              : 73.8 MiB (12%) 
Default                                  : Yes 
Forced                                   : No 












[Center]


>