Agam Puram (2010) Hindi Dubbed 720p WEBHD x264 AAC ESubs - 1.5GB -

.
Download .Torrent Magnet
Torren Name: Agam Puram (2010) Hindi Dubbed 720p WEBHD x264 AAC ESubs - 1.5GB -
Org Name: Agam Puram
File size: 1.54 GB
Categories: Hindi Dubbed Movies
Uploader: TodayPk.se
Seeders: 27 Leechers: 33 Downloaded: 435
Last scrape: 17 March 2018 15:53:52


ebff283becf5d0f55d55d198c11928ba.png


General 
Complete name : www.movcr.com - Agam Puram (2010) Hindi Dubbed 720p WEBHD x264 AAC ESubs - 1.5GB - MovCr.mkv 
Format : Matroska 
Format version : Version 4 / Version 2 
File size : 1.54 GiB 
Duration : 1 h 51 min 
Overall bit rate : 1 979 kb/s 
Movie name : www.movcr.com 
Encoded date : UTC 2018-03-11 07:17:26 
Writing application : mkvmerge v20.0.0 ('I Am The Sun') 64-bit 
Writing library : libebml v1.3.5 + libmatroska v1.4.8 

Video 
ID : 1 
Format : AVC 
Format/Info : Advanced Video Codec 
Format profile : [email protected] 
Format settings : CABAC / 3 Ref Frames 
Format settings, CABAC : Yes 
Format settings, RefFrames : 3 frames 
Codec ID : V_MPEG4/ISO/AVC 
Duration : 1 h 51 min 
Bit rate : 1 851 kb/s 
Width : 1 280 pixels 
Height : 720 pixels 
Display aspect ratio : 16:9 
Frame rate mode : Constant 
Frame rate : 24.000 FPS 
Color space : YUV 
Chroma subsampling : 4:2:0 
Bit depth : 8 bits 
Scan type : Progressive 
Bits/(Pixel*Frame) : 0.084 
Stream size : 1.44 GiB (94%) 
Title : www.movcr.com 
Default : Yes 
Forced : No 
Color range : Limited 
Color primaries : BT.709 
Transfer characteristics : BT.709 
Matrix coefficients : BT.709 

Audio 
ID : 2 
Format : AAC 
Format/Info : Advanced Audio Codec 
Format profile : LC 
Codec ID : A_AAC-2 
Duration : 1 h 51 min 
Bit rate : 126 kb/s 
Channel(s) : 2 channels 
Channel positions : Front: L R 
Sampling rate : 44.1 kHz 
Frame rate : 43.066 FPS (1024 SPF) 
Compression mode : Lossy 
Stream size : 100 MiB (6%) 
Title : www.movcr.com 
Default : Yes 
Forced : No 

Text 
ID : 3 
Format : UTF-8 
Codec ID : S_TEXT/UTF8 
Codec ID/Info : UTF-8 Plain Text 
Bit rate : 0 b/s 
Count of elements : 1 
Stream size : 12.0 Bytes (0%) 
Default : Yes 
Forced : No 







/b]


>