[movcr.com] The House Next Door (2017) 720p HDRip - Dual Audio [Hindi (Original)+Tamil] DD 5.1 - Mov

.
Download .Torrent Magnet
Torren Name: [movcr.com] The House Next Door (2017) 720p HDRip - Dual Audio [Hindi (Original)+Tamil] DD 5.1 - Mov
Org Name: The House Next Door
File size: 1.62 GB
Categories: Hindi Dubbed Movies
Uploader: TodayPk.se
Seeders: 102 Leechers: 49 Downloaded: 1841
Last scrape: 17 March 2018 13:13:53


ebff283becf5d0f55d55d198c11928ba.png

The House Next Door (2017) 720p HDRip - Dual Audio [Hindi (Original)+Tamil] DD 5.1 - MovCr Exclusive 

http://www.imdb.com/title/tt7471004/ 


General 
Complete name                            :[movcr.com] The House Next Door (2017) 720p HDRip - Dual Audio [Hindi+Tamil] DD 5.1 - MovCr Exclusive.mkv 
Format                                   : Matroska 
Format version                           : Version 4 / Version 2 
File size                                : 1.61 GiB 
Duration                                 : 2 h 14 min 
Overall bit rate                         : 1 704 kb/s 
Movie name                               : www.movcr.com 
Encoded date                             : UTC 2018-01-09 17:44:21 
Writing application                      : mkvmerge v17.0.0 ('Be Ur Friend') 32-bit 
Writing library                          : libebml v1.3.5 + libmatroska v1.4.8 

Video 
ID                                       : 1 
Format                                   : AVC 
Format/Info                              : Advanced Video Codec 
Format profile                           : [email protected] 
Format settings                          : CABAC / 4 Ref Frames 
Format settings, CABAC                   : Yes 
Format settings, RefFrames               : 4 frames 
Codec ID                                 : V_MPEG4/ISO/AVC 
Duration                                 : 2 h 14 min 
Bit rate                                 : 1 319 kb/s 
Width                                    : 1 280 pixels 
Height                                   : 544 pixels 
Display aspect ratio                     : 2.35:1 
Frame rate mode                          : Constant 
Frame rate                               : 24.000 FPS 
Color space                              : YUV 
Chroma subsampling                       : 4:2:0 
Bit depth                                : 8 bits 
Scan type                                : Progressive 
Bits/(Pixel*Frame)                       : 0.079 
Stream size                              : 1.24 GiB (77%) 
Title                                    : www.movcr.com 
Writing library                          : x264 core 112 
Encoding settings                        : cabac=1 / ref=2 / deblock=1:0:0 / analyse=0x1:0x111 / me=hex / subme=6 / psy=1 / psy_rd=1.00:0.00 / mixed_ref=0 / me_range=16 / chroma_me=1 / trellis=0 / 8x8dct=0 / cqm=0 / deadzone=21,11 / fast_pskip=1 / chroma_qp_offset=-2 / threads=12 / sliced_threads=0 / nr=0 / decimate=1 / interlaced=0 / constrained_intra=0 / bframes=2 / b_pyramid=2 / b_adapt=1 / b_bias=0 / direct=1 / weightb=0 / open_gop=0 / weightp=2 / keyint=240 / keyint_min=23 / scenecut=40 / intra_refresh=0 / rc_lookahead=40 / rc=abr / mbtree=1 / bitrate=1319 / ratetol=1.0 / qcomp=0.60 / qpmin=3 / qpmax=51 / qpstep=4 / ip_ratio=1.40 / aq=1:1.00 
Language                                 : English 
Default                                  : Yes 
Forced                                   : No 
Color range                              : Limited 
Color primaries                          : BT.709 
Transfer characteristics                 : BT.709 
Matrix coefficients                      : BT.709 

Audio #1 
ID                                       : 2 
Format                                   : E-AC-3 
Format/Info                              : Enhanced Audio Coding 3 
Codec ID                                 : A_EAC3 
Duration                                 : 2 h 14 min 
Bit rate mode                            : Constant 
Bit rate                                 : 192 kb/s 
Channel(s)                               : 6 channels 
Channel positions                        : Front: L C R, Side: L R, LFE 
Sampling rate                            : 48.0 kHz 
Frame rate                               : 187.500 FPS (256 SPF) 
Compression mode                         : Lossy 
Stream size                              : 185 MiB (11%) 
Title                                    : www.movcr.com 
Language                                 : Hindi 
Service kind                             : Complete Main 
Default                                  : No 
Forced                                   : No 

Audio #2 
ID                                       : 3 
Format                                   : E-AC-3 
Format/Info                              : Enhanced Audio Coding 3 
Codec ID                                 : A_EAC3 
Duration                                 : 2 h 14 min 
Bit rate mode                            : Constant 
Bit rate                                 : 192 kb/s 
Channel(s)                               : 6 channels 
Channel positions                        : Front: L C R, Side: L R, LFE 
Sampling rate                            : 48.0 kHz 
Frame rate                               : 187.500 FPS (256 SPF) 
Compression mode                         : Lossy 
Stream size                              : 185 MiB (11%) 
Title                                    : www.movcr.com 
Language                                 : Tamil 
Service kind                             : Complete Main 
Default                                  : Yes 
Forced                                   : No 





>